<?xml version="1.0" standalone="no"?>
<!DOCTYPE svg PUBLIC "-//W3C//DTD SVG 1.1//EN" "http://www.w3.org/Graphics/SVG/1.1/DTD/svg11.dtd">
<svg xmlns="http://www.w3.org/2000/svg">
<metadata>Generated by Fontastic.me</metadata>
<defs>
<font id="readly-icons" horiz-adv-x="512">
<font-face font-family="readly-icons" units-per-em="512" ascent="480" descent="-32"/>
<missing-glyph horiz-adv-x="512" />

<glyph unicode="&#99;" d="M64 448l0-192 96 0 0-16-112 0 0 224 288 0 0-112-16 0 0 96z m112-112l288 0 0-224-48 0 0-64-13 0-64 64-163 0z m272-208l0 192-256 0 0-192 153 0 55-55 0 55z"/>
<glyph unicode="&#97;" d="M304 416l0-64 64 0 0-16-80 0 0 80z m21 32l75-75 0-261-48 0 0-48-240 0 0 336 48 0 0 48z m11-368l0 32-176 0 0 272-32 0 0-304z m48 48l0 238-65 66-143 0 0-304z"/>
<glyph unicode="&#105;" d="M418 352c18 0 30-13 30-31l0-176c0-18-12-33-30-33l-320 0c-18 0-34 15-34 33l0 176c0 18 16 31 34 31l13 0 0 16 34 0 0-16 13 0c32 36 43 48 55 48l88 0c12 0 23-12 55-48z m14-207l0 176c0 9-5 15-14 15l-69 0-5 3c-3 4-7 8-10 11-12 13-20 24-26 30-5 5-7 4-7 4l-88 0c0 0-2 0-7-4-6-5-14-14-25-27-3-4-7-10-11-14l-5-3-67 0c-9 0-18-7-18-15l0-176c0-9 9-17 18-17l320 0c8 0 14 8 14 17z m-176 177c47 0 86-38 86-85 0-47-39-85-86-85-47 0-86 38-86 85 0 47 39 85 86 85z m0-154c38 0 70 31 70 69 0 38-32 69-70 69-38 0-70-31-70-69 0-38 32-69 70-69z m96 135l0 17 17 0 0-17z m-128-66c0 21 11 32 32 32 21 0 32-11 32-32 0-21-11-32-32-32-21 0-32 11-32 32z"/>
<glyph unicode="&#115;" d="M256 400c-97 0-176-62-176-138 0-26 10-51 27-73 0-1 0-2 1-3 1-1 2-1 2-2 4-6 6-13 6-20 0-3 1-3-13-47l39 17c2 1 10 4 11 4l1 0c5 2 10 3 16 3 5 0 9-1 14-2l1-1 2 0c19-6 41-10 70-10 48 0 92 15 125 40 32 25 50 58 50 94 0 76-79 138-176 138z m0 16c106 0 192-69 192-154 0-85-85-150-191-150-27 0-52 3-75 11l-2 0c-3 1-6 2-10 2-4 0-9-1-12-2l1 0-1 0c-1 0-9-4-10-4l-50-22-2-1-6 0c-6 1-8 6-7 10 1 0 17 57 17 58 0 4-1 8-3 11l1-1-4 4c-19 24-30 53-30 84 0 85 86 154 192 154z"/>
<glyph unicode="&#118;" d="M304 384c19 0 33-14 33-33l0-188c0-19-14-35-33-35l-221 0c-19 0-36 16-36 35l0 188c0 19 17 33 36 33z m16-221l0 188c0 9-8 16-17 16l-221 0c-9 0-18-7-18-16l0-188c0-9 10-18 19-18l221 0c9 0 16 9 16 18z m47 136l98 53 0-192-98 53z m81 23l-64-33 0-66 64-33z"/>
<glyph unicode="&#112;" d="M332 284c20-10 36-31 36-55 0-17-3-21-15-21l-81 0-12-176-8 0-12 176-81 0c-12 0-15 5-15 21 0 24 16 45 36 55 1 0 3 1 4 2 7 4 12 11 14 19l18 118 0 5c0 7-4 10-10 13-1 0-1 1-2 1-7 3-12 9-12 17 0 20 6 21 18 21l92 0c12 0 18-1 18-21 0-8-5-14-12-17-1 0-1-1-2-1-6-3-10-6-10-13l0-5 18-118c2-8 7-15 14-19 1-1 3-2 4-2z"/>
<glyph unicode="&#68;" d="M256 448c106 0 192-86 192-192 0-106-86-192-192-192-106 0-192 86-192 192 0 106 86 192 192 192z m122-88c-17-25-47-47-85-64 5-10 9-20 13-31 33 3 75 4 110 2-2 35-16 68-38 93z m-122 56c-14 0-26-2-39-5 23-23 43-53 62-87 34 14 62 33 79 55-28 23-63 37-102 37z m-72-18c-41-21-71-58-83-103l25 0c44 0 85 6 121 17-19 34-40 63-63 86z m-88-134l0-8c0-40 15-78 40-106 24 45 67 83 122 106 4 2 8 3 14 4-3 8-6 16-10 24-40-13-88-20-138-21-9 0-19 1-28 1z m160-168c20 0 39 3 57 10-3 25-8 53-15 79-4 17-10 33-16 49-7-2-13-4-17-6-48-22-86-56-107-98 27-21 61-34 98-34z m86 26c40 26 68 67 73 116-30 2-68 3-99 0 4-12 9-25 12-38 7-27 11-52 14-78z"/>
<glyph unicode="&#70;" d="M288 320l64 0-8-64-56 0 0-192-83 0 0 192-45 0 0 64 45 0 0 43c0 54 23 85 91 85l56 0 0-64-34 0c-27 0-30-9-30-26z"/>
<glyph unicode="&#84;" d="M492 402c-13-20-29-36-48-50l0-12c0-128-98-276-276-276-55 0-105 16-148 44 8-1 15-2 23-2 45 0 87 16 120 42-42 1-78 29-90 67 6-1 12-2 18-2 9 0 18 2 26 4-44 9-78 48-78 95l0 1c13-7 28-12 44-12-26 17-43 47-43 81 0 18 5 34 13 48 48-59 119-97 199-101-2 7-2 14-2 22 0 54 43 97 97 97 28 0 52-12 70-31 22 4 43 13 62 24-7-23-23-42-43-54 20 2 39 7 56 15z"/>
<glyph unicode="&#86;" d="M477 398c7-33 1-66-13-97-14-31-31-59-51-87-26-36-52-71-85-101-19-18-41-35-66-44-31-11-52-5-71 22-14 19-22 40-28 63-12 45-25 90-38 134-4 12-9 22-15 33-3 5-8 10-12 14-5 4-11 3-17 0-10-6-28-18-28-18l-21 27c26 24 82 71 82 71 11 9 33 25 48 27 21 3 38-4 50-22 11-17 15-37 18-57 7-41 11-82 23-122 3-10 8-20 13-29 7-11 15-13 25-5 4 3 7 6 10 10 20 24 37 52 48 81 3 9 3 17 3 27 0 13-10 25-25 26-15 1-24-1-39-7 6 24 24 62 54 84 29 21 71 24 94 16 23-8 36-23 41-46z"/>
<glyph unicode="&#78;" d="M256 480c124 0 224-100 224-224 0-124-100-224-224-224-22 0-44 3-64 9 8 14 18 31 23 48 3 10 16 62 16 62 8-15 30-28 54-28 72 0 121 65 121 153 0 66-56 129-142 129-106 0-160-76-160-140 0-39 15-73 46-86 5-2 10 0 12 6 1 4 3 14 4 18 2 6 1 7-3 12-9 11-15 24-15 44 0 57 42 107 110 107 60 0 94-36 94-85 0-65-29-119-71-119-24 0-42 19-36 43 7 28 20 59 20 79 0 18-10 34-30 34-24 0-43-25-43-58 0-21 7-36 7-36 0 0-25-104-29-122-4-17-5-35-4-51-79 35-134 113-134 205 0 124 100 224 224 224z"/>
<glyph unicode="&#82;" d="M120 176c31 0 56-25 56-56 0-31-25-56-56-56-31 0-56 25-56 56 0 31 25 56 56 56z m-56 144c140 0 256-116 256-256l-80 0c0 48-14 94-48 128-34 34-80 48-128 48z m0 128c212 0 384-172 384-384l-80 0c0 171-133 304-304 304z"/>
<glyph unicode="&#71;" d="M242 236c22-18 45-36 45-73 0-49-47-99-139-99-80 0-116 39-116 77 0 10 3 42 42 65 27 16 61 21 85 23-4 7-8 15-8 26 0 4 0 7 1 10l-4 0c-19 0-46 4-67 26-15 15-24 36-24 57 0 26 13 53 35 71 32 25 69 29 94 29l134 0-60-33-13 0c11-13 23-31 23-58 0-40-25-59-45-74l0-1c-6-6-11-10-11-17 0-6 4-10 10-15z m-125 136c0-13 4-33 14-51 7-12 21-27 41-27 10 0 21 4 28 11 10 10 10 25 10 30 0 18-6 37-15 53-8 13-20 28-40 28-11 0-23-5-29-13-6-7-9-18-9-31z m121-228c0 20-13 31-50 56-3 0-4 1-8 1-6 0-31-2-50-8-16-6-38-16-38-42 0-31 32-51 80-51 41 0 66 17 66 44z m164 226l78 0 0-34-78 0 0-81-34 0 0 81-80 0 0 34 80 0 0 78 34 0z"/>
<glyph unicode="&#89;" d="M265 416l-18 0c-65 0-118-2-168-4l-2 0c-23 0-42-22-42-49l0-2c-2-34-3-70-3-105 0-35 1-70 3-104l0-3c0-14 5-26 14-36 8-9 17-13 28-13l2 0c52-2 108-4 166-4l22 0c58 0 113 2 166 4l2 0c11 0 20 4 28 13 9 10 14 22 14 36l0 3c2 34 3 68 3 104 0 36-1 71-3 105l0 3c0 27-19 49-42 49l-2 0c-49 2-103 3-168 3z m0 32c58 0 115 0 170-3 41 0 74-36 74-81 2-36 3-72 3-108 0-36-1-71-3-107 0-45-33-81-74-81-55-3-111-4-168-4l-22 0c-57 0-113 1-168 4-41 0-74 36-74 81-2 36-3 71-3 107 0 36 2 71 4 107 0 45 32 82 73 82 55 2 112 3 170 3z m-58-290l0 197 145-99z"/>
<glyph unicode="&#119;" d="M360 288l56 0 0-240-320 0 0 240 56 0 0 72c0 57 46 104 104 104 57 0 104-47 104-104z m-192 72l0-72 176 0 0 72c0 48-40 88-88 88-48 0-88-40-88-88z m232-296l0 208-288 0 0-208z m-112 128c0-15-10-27-24-31l0-41c0-4-4-8-8-8-4 0-8 4-8 8l0 41c-14 4-24 16-24 31 0 18 14 32 32 32 18 0 32-14 32-32z m-32-16c9 0 16 7 16 16 0 9-7 16-16 16-9 0-16-7-16-16 0-9 7-16 16-16z"/>
<glyph unicode="&#57367;" d="M341 414c-38 0-71-24-85-57-14 33-47 57-85 57-51 0-92-42-92-93 0-25 10-47 26-64l151-152 148 150c17 17 29 40 29 66 0 51-41 93-92 93z m0 15c59 0 107-49 107-108 0-30-12-57-33-77l-148-150-11-11-11 11-151 153c-19 20-30 46-30 74 0 59 48 108 107 108 34 0 65-16 85-42 20 26 51 42 85 42z"/>
<glyph unicode="&#57371;" d="M256 479c124 0 224-100 224-224 0-124-100-224-224-224-124 0-224 100-224 224 0 124 100 224 224 224z m108-299l-75 75 76 75c3 3 3 9 0 12l-22 21c-2 2-4 3-6 3-2 0-3-1-5-3l-76-74-76 74c-2 2-3 3-5 3-2 0-4-1-6-3l-21-21c-3-3-3-9 0-12l76-75-76-76c-2-1-2-3-2-5 0-2 0-4 2-6l21-22c2-2 4-2 6-2 2 0 4 0 6 2l75 76 76-75c2-2 3-3 5-3 2 0 4 1 6 3l21 21c2 1 3 4 3 6 0 2-1 4-3 6z"/>
<glyph unicode="&#111;" d="M510 70c6-6-3-27-22-46-19-19-40-28-46-22l-113 113c-4 4-1 15 8 28l-40 40c-31-24-70-39-113-39-102 0-184 82-184 184 0 102 82 184 184 184 102 0 184-82 184-184 0-43-15-82-39-113l40-40c13 9 24 12 28 8z m-326 114c38 0 75 15 102 42 27 27 42 64 42 102 0 38-15 75-42 102-27 27-64 42-102 42-38 0-75-15-102-42-27-27-42-64-42-102 0-38 15-75 42-102 27-27 64-42 102-42z"/>
<glyph unicode="&#57383;" d="M207 432l-111 0c-9 0-16-7-16-16l0-108c0-6 3-12 7-16l213-207 1 0 0-1c3-3 7-4 11-4 4 0 8 1 11 4l104 105c3 3 5 7 5 11 0 4-2 8-5 11l0 1-204 213c-4 4-10 7-16 7z m0 16c10 0 20-4 28-12l204-213c6-6 9-15 9-23 0-8-3-16-9-22l-105-105c-6-6-14-9-22-9-8 0-17 3-23 9l-214 207c-7 7-11 17-11 28l0 108c0 18 14 32 32 32z m-47-64c-18 0-32-14-32-32 0-18 14-32 32-32 18 0 32 14 32 32 0 18-14 32-32 32z m0 16c26 0 48-22 48-48 0-26-22-48-48-48-26 0-48 22-48 48 0 26 22 48 48 48z"/>
<glyph unicode="&#121;" d="M480 305l-140-98 54-159-138 99-138-99 54 159-140 98 171 0 53 159 53-159z m-117-214l-43 122 108 75-131 0-41 123-41-123-131 0 108-75-43-122 107 76z"/>
<glyph unicode="&#57385;" d="M395 171c30 0 53-24 53-54 0-30-23-53-53-53-30 0-54 23-54 53 0 30 24 54 54 54z m0-91c21 0 37 16 37 37 0 21-16 38-37 38-21 0-38-17-38-38 0-21 17-37 38-37z m-139 91c30 0 53-24 53-54 0-30-23-53-53-53-30 0-53 23-53 53 0 30 23 54 53 54z m0-91c21 0 37 16 37 37 0 21-16 38-37 38-21 0-37-17-37-38 0-21 16-37 37-37z m-139 91c30 0 54-24 54-54 0-30-24-53-54-53-30 0-53 23-53 53 0 30 23 54 53 54z m0-91c21 0 38 16 38 37 0 21-17 38-38 38-21 0-37-17-37-38 0-21 16-37 37-37z m278 229c30 0 53-23 53-53 0-30-23-53-53-53-30 0-54 23-54 53 0 30 24 53 54 53z m0-90c21 0 37 16 37 37 0 21-16 37-37 37-21 0-38-16-38-37 0-21 17-37 38-37z m-139 90c30 0 53-23 53-53 0-30-23-53-53-53-30 0-53 23-53 53 0 30 23 53 53 53z m0-90c21 0 37 16 37 37 0 21-16 37-37 37-21 0-37-16-37-37 0-21 16-37 37-37z m-139 90c30 0 54-23 54-53 0-30-24-53-54-53-30 0-53 23-53 53 0 30 23 53 53 53z m0-90c21 0 38 16 38 37 0 21-17 37-38 37-21 0-37-16-37-37 0-21 16-37 37-37z m278 122c-30 0-54 24-54 54 0 30 24 53 54 53 30 0 53-23 53-53 0-30-23-54-53-54z m0 91c-21 0-38-16-38-37 0-21 17-38 38-38 21 0 37 17 37 38 0 21-16 37-37 37z m-139 16c30 0 53-23 53-53 0-30-23-54-53-54-30 0-53 24-53 54 0 30 23 53 53 53z m0-91c21 0 37 17 37 38 0 21-16 37-37 37-21 0-37-16-37-37 0-21 16-38 37-38z m-139 91c30 0 54-23 54-53 0-30-24-54-54-54-30 0-53 24-53 54 0 30 23 53 53 53z m0-91c21 0 38 17 38 38 0 21-17 37-38 37-21 0-37-16-37-37 0-21 16-38 37-38z"/>
<glyph unicode="&#117;" d="M256 480c44 0 79-38 79-84l0-154c0-46-35-84-79-84-44 0-79 38-79 84l0 154c0 46 35 84 79 84z m63-238l0 154c0 37-28 68-63 68-35 0-63-31-63-68l0-154c0-37 28-68 63-68 35 0 63 31 63 68z m48 78l17 0 0-80c0-67-51-122-117-127l0-63 69 0 0-18-161 0 0 18 73 0 0 63c-67 5-120 60-120 127l0 80 19 0 0-80c0-60 50-109 110-109 60 0 110 49 110 109z"/>
<glyph unicode="&#108;" d="M434 165c0 7-2 14-8 19l-59 59c-5 6-12 8-20 8-8 0-14-3-20-9 0 0 2-2 5-5 3-3 5-5 6-6 1-1 3-3 5-6 2-2 3-4 3-7 1-2 1-5 1-8 0-7-2-14-8-19-5-5-11-8-19-8-3 0-5 0-8 1-2 1-5 2-7 4-3 1-4 3-6 4-1 1-3 3-6 6-3 3-4 5-5 5-6-5-9-12-9-20 0-8 2-15 8-20l58-59c6-5 12-8 20-8 7 0 14 3 19 8l42 41c6 6 8 12 8 20z m-201 201c0 8-2 14-8 19l-58 60c-6 5-12 8-20 8-7 0-14-3-19-8l-42-42c-6-5-8-12-8-19 0-8 2-14 8-19l59-60c5-5 12-8 20-8 8 0 14 3 20 9 0 1-2 3-5 6-3 3-5 5-6 6-1 1-3 3-5 5-2 3-3 5-3 7-1 3-1 5-1 8 0 8 2 14 8 20 5 5 11 8 19 8 3 0 5-1 8-1 2-1 5-2 7-4 3-2 4-3 6-4 1-1 3-3 6-6 3-3 4-5 5-6 6 6 9 13 9 21z m256-201c0-23-8-43-24-58l-42-42c-16-16-35-24-58-24-23 0-43 8-58 24l-59 60c-16 15-24 35-24 58 0 23 8 43 25 59l-25 25c-16-16-36-25-59-25-23 0-43 8-59 24l-59 60c-16 16-24 35-24 58 0 23 8 42 24 58l42 42c16 16 35 23 58 23 23 0 43-8 58-24l59-59c16-16 24-35 24-58 0-23-8-43-25-60l25-25c16 17 36 25 59 25 23 0 43-8 59-24l59-59c16-16 24-36 24-58z"/>
<glyph unicode="&#57389;" d="M448 144l0-32-10 0-20 31c-20 33-44 63-75 77-24 11-47 19-87 20l0-80-192 128 192 128 0-80c63-3 108-21 143-56 52-53 49-119 49-136z m-16 7c0 0 9 169-192 169l0 65-148-97 148-97 0 65c91 0 144-24 192-105z"/>
<glyph unicode="&#114;" d="M64 112l0 32c0 17-3 83 49 136 35 36 80 53 143 56l0 80 192-128-192-128 0 80c-40-1-63-9-87-20-31-14-55-44-75-77l-20-31z m208 208c-201 0-192-169-192-169 48 81 101 105 192 105l0-65 148 97-148 97z"/>
<glyph unicode="&#113;" d="M413 443l13-25c-29-12-53-31-74-57-20-26-31-52-31-78 0-11 2-21 4-29 16 12 33 18 51 18 25 0 46-8 63-24 17-16 25-37 25-64 0-25-8-46-25-63-17-17-38-25-63-25-35 0-62 14-81 44-16 24-24 54-24 90 0 47 12 88 36 124 23 37 59 66 106 89m-234 0l13-25c-29-12-53-31-74-57-20-26-31-52-31-78 0-11 2-21 4-29 15 12 33 18 51 18 25 0 46-8 63-24 17-16 25-37 25-64 0-17-4-32-12-45-8-14-18-24-32-32-13-7-28-11-44-11-35 0-62 14-81 44-16 24-24 54-24 90 0 47 12 88 36 124 23 37 59 66 106 89m3 8l-5-3c-24-11-46-24-64-39-18-15-33-33-45-51-12-19-22-39-28-60-6-21-9-44-9-68 0-37 9-69 25-94 20-31 49-46 86-46 17 0 33 4 47 12 14 8 26 19 35 34 8 14 13 30 13 48 0 29-10 52-28 69-18 17-41 25-67 25-17 0-33-5-47-14-1 6-2 12-2 19 0 12 3 25 8 37 5 12 12 25 22 37 20 25 44 44 71 55l7 3-3 6-13 25z m234 0l-5-3c-24-11-46-24-64-39-18-15-33-33-45-51-12-19-22-39-28-60-6-21-9-44-9-68 0-37 9-69 25-94 20-31 49-46 86-46 27 0 49 9 67 27 18 18 27 40 27 67 0 29-9 52-27 69-18 17-40 25-67 25-17 0-32-5-47-14-1 6-2 12-2 19 0 12 3 25 8 37 4 12 12 25 22 37 20 25 44 44 71 55l6 3-3 6-12 25z"/>
<glyph unicode="&#73;" d="M426 105l0 185-39 0c4-12 6-25 6-38 0-24-6-46-18-66-13-20-29-36-50-48-21-12-44-18-69-18-37 0-69 13-96 39-27 26-40 57-40 93 0 13 2 26 6 38l-41 0 0-185c0-5 2-10 5-13 4-3 8-5 13-5l305 0c5 0 9 2 13 5 3 3 5 8 5 13z m-81 152c0 23-9 44-26 60-18 17-38 25-63 25-24 0-45-8-62-25-17-16-26-37-26-60 0-24 9-44 26-61 17-16 38-25 62-25 25 0 45 9 63 25 17 17 26 37 26 61z m81 103l0 47c0 5-2 10-6 14-4 4-8 6-14 6l-50 0c-5 0-10-2-14-6-4-4-5-9-5-14l0-47c0-6 1-10 5-14 4-4 9-6 14-6l50 0c6 0 10 2 14 6 4 4 6 8 6 14z m49 59l0-326c0-16-5-29-16-40-11-11-24-16-40-16l-326 0c-16 0-29 5-40 16-11 11-16 24-16 40l0 326c0 16 5 29 16 40 11 11 24 16 40 16l326 0c16 0 29-5 40-16 11-11 16-24 16-40z"/>
<glyph unicode="&#75;" d="M486 256c0-57-46-102-103-102-57 0-103 45-103 102 0 57 46 102 103 102 57 0 103-45 103-102z m-357 102c-57 0-103-45-103-102 0-57 46-102 103-102 57 0 103 45 103 102 0 57-46 102-103 102z"/>
<glyph unicode="&#76;" d="M136 333l0-283-94 0 0 283z m6 88c0-14-4-26-14-35-10-9-23-14-39-14l0 0c-16 0-29 5-38 14-10 9-14 21-14 35 0 14 4 26 14 35 10 9 23 14 39 14 16 0 28-5 38-14 9-9 14-21 14-35z m333-208l0-163-94 0 0 152c0 20-3 35-11 47-8 11-20 17-36 17-12 0-22-4-30-10-9-7-15-15-19-25-2-5-3-13-3-23l0-158-94 0c1 76 1 138 1 185 0 47 0 76 0 85l-1 13 94 0 0-41 0 0c4 6 7 12 11 16 4 5 10 10 17 15 6 5 15 10 24 13 10 3 21 4 33 4 33 0 59-11 79-32 20-22 29-54 29-95z"/>
<glyph unicode="&#85;" d="M221 475l63 0 0-110 104 0 0-69-104 0 0-113c0-26 1-42 4-49 2-7 7-13 15-17 9-6 20-9 33-9 22 0 44 7 66 22l0-69c-19-10-36-16-51-19-14-4-31-5-49-5-20 0-38 2-53 7-15 5-28 12-40 22-11 9-18 19-22 30-4 10-6 25-6 46l0 154-49 0 0 62c17 5 32 13 44 24 12 10 22 23 30 37 7 15 12 34 15 56z"/>
<glyph unicode="&#69;" d="M355 239c1-3 2-6 2-9 0-7-2-13-6-18-4-5-9-9-15-10l0 0c0 0 0 0 0 0 0 0 0 0 0 0-3-1-6-2-8-2-7 0-14 3-19 7-5 4-9 10-10 17l0 0c0 0 0 0 0 0 0 0 0 0 0 0l0 0c-1 2-1 4-1 5 0 6 2 12 5 17 4 5 9 9 14 11 0 0 0 0 0 0 0 0 0 0 0 0 3 1 7 1 10 1 6 0 12-2 17-5 5-3 9-8 11-14 0 0 0 0 0 0 0 0 0 0 0 0z m-18-74c-3 1-5 2-8 2-3 0-5-1-7-2-21-12-45-19-68-19-18 0-36 4-52 12l0 0 0 0c-3 1-5 3-8 5-2 1-3 2-5 3-2 0-4 1-6 1-2 0-4 0-5-1 0 0 0 0-1 0l0 0c-2-1-5-3-6-6-1-2-2-5-2-8 0-2 0-5 2-7 1-2 3-4 5-5 23-16 50-23 77-23 25 0 49 6 71 16l0 0 0 0c3 2 7 4 11 6 1 1 3 2 5 4 1 2 2 4 3 6l0 0c0 2 1 3 1 4 0 2-1 4-2 5-1 3-3 5-5 7z m-162 37c0 0 1 0 1 0 3-1 6-2 9-2 7 0 14 3 20 8 5 5 9 12 9 20 0 1 0 1 0 1 0 0 0 1 0 1 0 8-4 15-9 20-6 5-13 8-20 8-2 0-4 0-6 0 0 0 0 0 0 0 0 0 0 0 0 0-10-2-19-10-22-20l0 0c0 0 0 0 0 0-1-3-2-6-2-8 0-7 2-13 6-18 3-4 8-8 14-10 0 0 0 0 0 0z m311 72l0 0c0-1 0-2 0-3 0-11-3-22-9-31-6-9-13-16-22-21 0-4 1-8 1-13 0-24-9-48-23-67l0 0 0 0c-27-35-68-56-110-67l0 0 0 0c-22-5-45-8-67-8-34 0-68 6-100 19l0 0 0 0c-33 13-64 35-83 66-11 17-16 37-16 57 0 4 0 9 0 13-8 5-16 12-21 20-6 9-10 20-10 31l0 0c0 15 6 30 17 40 10 11 24 18 39 18 1 0 1 0 1 0 2 0 3 0 5 0 7 0 15-1 22-4l0 0 0 0c7-2 13-6 18-10 2 1 4 2 6 3 33 20 72 27 110 29 0 19 2 39 12 56 7 14 20 25 36 29l0 0 0 0c6 1 12 2 18 2 16 0 32-4 47-10 6 10 15 17 26 22l0 0 0 0c7 2 14 3 20 3 8 0 15-1 22-4l0 0c0 0 0 0 0 0 0 0 0 0 0 0 9-4 18-11 23-20 6-8 10-19 10-29 0-2 0-4-1-6l0 0c0 0 0 0 0 0-1-14-8-26-18-35-9-8-22-13-35-13-3 0-5 0-7 0-13 1-25 7-34 17-9 9-15 22-15 35 0 1 0 1 0 2-12 6-25 10-38 10-2 0-4 0-5 0l0 0c-10-1-19-7-23-16l0 0c-7-13-8-28-9-43 37-2 75-11 108-30l0 0 0 0c1-1 2-1 3-2 2 2 5 4 7 5 10 7 22 10 34 10 5 0 10 0 15-2l0 0 0 0c1 0 1 0 1 0l0 0c12-3 22-10 31-19 8-9 13-21 14-34l0 0z m-109 122c0-1 0-1 0-2l0 0c0-6 3-12 8-17 5-4 11-7 17-7l0 0c1 0 1 0 2 0 6 0 12 3 17 7 5 4 8 10 8 17l0 0 0 0c0 1 0 1 0 2 0 6-3 13-8 17-5 5-11 8-18 8-2 0-4 0-6-1l0 0 0 0c-6-1-11-5-14-9-4-4-6-10-6-15z m-274-100c-5 2-10 4-15 4-1 0-2 0-3 0l0 0 0 0c-7 0-15-3-20-9-6-5-9-11-9-19l0 0 0 0c-1-1-1-1-1-2 0-5 2-9 4-13 2-3 4-6 7-8 9 18 22 34 37 47z m323-91c0 17-6 33-15 47-20 27-50 44-81 54l0 0c-6 2-12 4-18 5-18 4-37 6-56 6-25 0-50-4-74-11-31-10-61-27-81-54l0 0c-9-14-15-31-15-47 0-6 1-12 2-18l0 0c4-14 11-26 20-36 8-11 19-20 31-27 2-1 5-3 7-4 34-19 72-27 110-27 7 0 13 0 20 1 38 3 76 14 108 37l0 0c9 8 19 16 26 26 7 11 13 22 15 34l0 0 0 0c1 5 1 9 1 14z m31 66c0 4-1 8-3 12l0 0 0 0c-3 6-7 10-12 13-6 3-12 4-18 4-5 0-10-1-15-4 15-13 28-29 37-47 3 2 5 5 7 8 2 5 4 9 4 14z"/>
<glyph unicode="&#83;" d="M283 306c0 0 0 31 0 31 0 7-3 14-8 19-5 5-11 8-19 8-7 0-13-3-18-8-6-5-9-12-9-19 0 0 0-161 0-161 0-31-11-58-33-81-23-22-50-34-81-34-32 0-59 12-81 34-23 23-34 50-34 81 0 0 0 68 0 68 0 0 88 0 88 0 0 0 0-68 0-68 0-7 3-13 8-18 6-6 12-8 19-8 7 0 13 2 18 8 6 5 8 11 8 18 0 0 0 161 0 161 0 31 12 58 34 80 23 22 50 34 81 34 31 0 58-12 81-34 22-22 34-49 34-80 0 0 0-31 0-31 0 0-53-17-53-17 0 0-35 17-35 17m142-62c0 0 87 0 87 0 0 0 0-68 0-68 0-31-11-58-34-81-22-22-49-34-81-34-31 0-58 12-81 34-22 23-33 50-33 81 0 0 0 69 0 69 0 0 35-17 35-17 0 0 53 17 53 17 0 0 0-69 0-69 0-7 2-13 8-18 5-6 11-8 18-8 8 0 14 2 20 7 5 5 8 12 8 19 0 0 0 68 0 68"/>
<glyph unicode="&#79;" d="M384 448l-256 0c-35 0-64-29-64-64l0-96c0-106 86-192 192-192 106 0 192 86 192 192l0 96c0 35-29 64-64 64z m-9-151l-91-90-1 1c-6-9-15-16-27-16-12 0-21 7-27 16l-1-1-91 90c-12 13-12 33 0 46 13 12 33 12 46 0l73-74 73 74c13 12 33 12 46 0 12-13 12-33 0-46z"/>
<glyph unicode="&#103;" d="M64 413l0 35 32 0 0-35z m320 35l0-177-256 0 0 177z m0-206l0-178-256 0 0 178z m-320 101l0 35 32 0 0-35z m0-69l0 34 32 0 0-34z m0-70l0 34 32 0 0-34z m0-70l0 35 32 0 0-35z m0-70l0 35 32 0 0-35z m352 349l0 35 32 0 0-35z m0-70l0 35 32 0 0-35z m0-69l0 34 32 0 0-34z m0-70l0 34 32 0 0-34z m0-70l0 35 32 0 0-35z m0-70l0 35 32 0 0-35z"/>
<glyph unicode="&#126;" d="M236 301c-42 0-190 22-201-94 0 0 11 38 55 38 57 0 61-84 138-84 10 0 48 10 48 55 0 57-40 85-40 85m169-116c-38 0-64 24-91 50-31 29-64 60-120 60-67 0-116-15-141-42-20-22-18-45-18-45l-19-2c0 2-3 32 23 60 29 32 81 48 155 48 64 0 101-34 133-65 26-24 48-45 78-45 59 0 72 76 72 77l19-3c-5-32-31-93-91-93z m-333 24c0-16-13-28-28-28-16 0-28 12-28 28 0 15 12 27 28 27 15 0 28-12 28-27z"/>
<glyph unicode="&#96;" d="M276 301c42 0 190 22 201-94 0 0-11 38-55 38-57 0-61-84-138-84-10 0-48 10-48 55 0 57 40 85 40 85m-169-116c38 0 64 24 91 50 31 29 64 60 120 60 67 0 116-15 141-42 20-22 18-45 18-45l19-2c0 2 3 32-23 60-29 32-81 48-155 48-64 0-101-34-133-65-26-24-48-45-78-45-59 0-72 76-72 77l-19-3c5-32 31-93 91-93z m389 24c0-16-12-28-28-28-15 0-28 12-28 28 0 15 13 27 28 27 16 0 28-12 28-27z"/>
<glyph unicode="&#101;" d="M399 343c1-3 1-5 1-9l0-244c0-13-9-26-21-26l-243 0c-12 0-24 13-24 26l0 335c0 13 12 23 24 23l160 0c3 0 6 0 9-2 2-1 5-2 7-4l83-92c2-2 3-4 4-7z m-94 58l0-63 58 0z m-161-305l224 0 0 210-67 0c-15 0-28 13-28 28l0 82-129 0z"/>
</font>
</defs>
</svg>
