<?xml version="1.0" standalone="no"?>
<!DOCTYPE svg PUBLIC "-//W3C//DTD SVG 1.1//EN" "http://www.w3.org/Graphics/SVG/1.1/DTD/svg11.dtd">
<svg xmlns="http://www.w3.org/2000/svg">
<defs >
<font id="Raleway" horiz-adv-x="458" ><font-face
    font-family="Raleway Light"
    units-per-em="1000"
    panose-1="2 11 4 3 3 1 1 6 0 3"
    ascent="940"
    descent="-234"
    alphabetic="0" />
<glyph unicode=" " glyph-name="space" horiz-adv-x="257" />
<glyph unicode="!" glyph-name="exclam" horiz-adv-x="243" d="M96 218V717H147V218H96ZM96 0V102H147V0H96Z" />
<glyph unicode="&quot;" glyph-name="quotedbl" horiz-adv-x="264" d="M70 540V714H115V540H70ZM149 540V714H193V540H149Z" />
<glyph unicode="#" glyph-name="numbersign" horiz-adv-x="669" d="M631 466H506L455 253H589V212H445L393 0H349L402 212H194L142 0H98L151 212H38V253H160L212 466H79V505H222L271 710H315L265 505H473L522 710H566L516 505H631V466ZM412 253L463 466H255L203 253H412Z" />
<glyph unicode="$" glyph-name="dollar" horiz-adv-x="617" d="M513 592Q445 668 324 669V378H327Q384 366 430 352T509 315T559 261T577 182Q577 135 559 100T508 42T429 6T327 -6V-99H296V-5Q147 3 42 100L69 141Q110 98 168 71T298 39V334Q242 346 199 359T126
393T82 443T67 516Q67 561 83 597T130 658T202 697T296 714V815H327V715Q393 713 445 693T539 632L513 592ZM523 176Q523 209 511 233T474 274T412 304T324 329V39H325Q418 39 470 73T523 176ZM119 523Q119 491 129 470T161 433T217 406T298 384V668Q204 664 162
625T119 523Z" />
<glyph unicode="%" glyph-name="percent" horiz-adv-x="698" d="M188 437Q158 437 132 448T86 478T55 523T43 578Q43 608 54 633T85 678T131 709T188 720Q218 720 244 709T290 679T321 634T333 578Q333 549 322 523T291 478T245 448T188 437ZM188 469Q210 469
229 478T263 502T285 537T294 578Q294 601 286 621T262 656T228 679T188 688Q166 688 147 679T114 655T91 620T83 578Q83 555 91 536T114 501T147 478T188 469ZM510 -10Q480 -10 454 1T408 31T377 76T365 132Q365 161 376 187T407 232T453 262T510 273Q540 273
566 262T612 232T643 187T655 132Q655 102 644 77T613 32T567 1T510 -10ZM510 22Q532 22 551 31T585 55T607 90T616 132Q616 154 608 174T584 209T550 232T510 241Q488 241 469 232T436 208T413 173T405 132Q405 109 413 89T435 54T469 31T510 22ZM59 21L338 365L612
713L640 690L361 345L86 -3L59 21Z" />
<glyph unicode="&amp;" glyph-name="ampersand" horiz-adv-x="655" d="M581 0L490 95Q449 47 394 19T272 -10Q228 -10 188 3T116 40T67 99T49 178Q49 214 61 244T95 300T145 349T206 393Q178 423 159 447T127 492T110 530T104 567Q104 598 117 625T154 674T209
707T278 719Q312 719 341 709T391 680T425 637T437 583Q437 553 424 527T389 477T337 432T275 388L489 166Q511 205 523 251T535 348H579Q577 228 519 134L648 0H581ZM278 31Q335 31 381 56T461 125L235 362Q206 342 182 322T138 280T109 232T98 176Q98 140 114
113T155 68T213 40T278 31ZM151 568Q151 555 154 542T168 512T197 473T245 419Q311 462 351 498T391 581Q391 623 359 650T277 678Q250 678 227 669T187 645T161 610T151 568Z" />
<glyph unicode="&apos;" glyph-name="quotesingle" horiz-adv-x="185" d="M70 539V714H115V539H70Z" />
<glyph unicode="(" glyph-name="parenleft" horiz-adv-x="256" d="M46 345Q46 396 57 445T86 543T130 638T183 734L222 714Q200 682 177 638T136 543T105 441T93 342Q93 264 127 172T222 -11L184 -33Q120 61 83 156T46 345Z" />
<glyph unicode=")" glyph-name="parenright" horiz-adv-x="255" d="M209 345Q209 251 173 156T72 -33L34 -11Q94 79 128 171T162 342Q162 389 150 441T119 543T78 637T33 714L72 734Q100 686 125 639T169 543T198 446T209 345Z" />
<glyph unicode="*" glyph-name="asterisk" horiz-adv-x="314" d="M90 553L132 613L64 635L73 664L141 640V712H172V640L241 664L250 635L182 613L225 553L199 535L157 596L115 535L90 553Z" />
<glyph unicode="+" glyph-name="plus" horiz-adv-x="414" d="M360 376V334H230V193H184V334H53V376H184V517H230V376H360Z" />
<glyph unicode="," glyph-name="comma" horiz-adv-x="238" d="M97 -81L112 -2H94V85H145V-2L124 -81H97Z" />
<glyph unicode="-" glyph-name="hyphen" horiz-adv-x="422" d="M67 249V295H355V249H67Z" />
<glyph unicode="." glyph-name="period" horiz-adv-x="177" d="M67 0V85H111V0H67Z" />
<glyph unicode="/" glyph-name="slash" horiz-adv-x="579" d="M551 710L84 0H27L493 710H551Z" />
<glyph unicode="0" glyph-name="zero" horiz-adv-x="611" d="M554 293Q554 227 536 172T484 76T405 13T305 -10Q251 -10 206 12T127 75T76 171T57 293Q57 359 75 414T127 510T205 574T305 597Q359 597 404 574T483 511T535 415T554 293ZM503 293Q503 350 489 397T448
478T386 531T305 550Q261 550 225 531T162 479T122 398T107 293Q107 236 121 189T162 108T224 56T305 37Q349 37 385 55T448 108T488 189T503 293Z" />
<glyph unicode="1" glyph-name="one" horiz-adv-x="408" d="M387 46V0H68V46H210V508Q201 496 182 482T139 456T90 435T45 426V476Q70 476 98 489T150 520T191 552T210 571H260V46H387Z" />
<glyph unicode="2" glyph-name="two" horiz-adv-x="508" d="M45 0Q45 28 50 62T72 132T123 201T213 262Q241 276 273 290T332 322T377 365T395 423Q395 443 386 463T360 499T315 525T252 535Q217 535 190 525T142 501T108 473T88 451L54 486Q58 490 73 505T115
537T177 567T259 581Q304 581 339 569T399 535T436 485T449 425Q449 384 429 354T380 302T320 264T265 239Q187 206 146 161T102 46H460V0H45Z" />
<glyph unicode="3" glyph-name="three" horiz-adv-x="529" d="M330 236Q398 225 439 175T480 52Q480 7 464 -29T418 -92T347 -132T256 -147Q181 -147 124 -115T41 -27L78 3Q98 -45 144 -73T257 -101Q336 -101 382 -60T428 54Q428 127 381 170T246 213H222V257H248Q329
257 372 293T415 391Q415 424 403 449T370 493T320 520T257 530Q197 530 152 503T86 428L52 456Q64 483 84 505T132 543T192 567T261 576Q306 576 343 563T408 526T451 469T467 396Q467 365 458 338T430 290T387 255T330 236Z" />
<glyph unicode="4" glyph-name="four" horiz-adv-x="536" d="M367 -127V59H21V103L382 571H417V105H505V59H417V-127H367ZM77 105H371V490L77 105Z" />
<glyph unicode="5" glyph-name="five" horiz-adv-x="542" d="M274 310Q322 310 364 294T437 247T487 176T505 84Q505 31 486 -11T433 -85T356 -132T263 -149Q187 -149 127 -111T36 -9L73 12Q100 -40 151 -71T263 -103Q303 -103 338 -90T398 -51T439 8T454 84Q454
124 440 157T400 214T342 251T269 264Q218 264 173 242T99 177H51Q52 184 56 205T66 255T79 319T93 389Q110 471 130 571H470V524H168L112 243Q142 275 184 292T274 310Z" />
<glyph unicode="6" glyph-name="six" horiz-adv-x="600" d="M556 233Q556 182 537 138T484 61T405 9T307 -10Q252 -10 206 10T126 67T73 157T54 279Q54 391 73 473T126 609T207 689T312 715Q384 715 439 678T522 577L487 550Q467 604 419 637T312 670Q265 670
227 648T161 582T119 475T103 331Q114 363 135 389T183 435T244 464T313 475Q364 475 408 456T485 404T537 327T556 233ZM308 35Q349 35 385 50T449 93T492 156T508 233Q508 274 492 310T449 373T386 416T308 432Q267 432 231 416T167 373T124 310T108 233Q108
192 124 156T167 93T230 51T308 35Z" />
<glyph unicode="7" glyph-name="seven" horiz-adv-x="535" d="M439 536H40V583H519L158 -127H101L439 536Z" />
<glyph unicode="8" glyph-name="eight" horiz-adv-x="589" d="M537 194Q537 148 517 111T464 48T385 7T291 -7Q238 -7 194 9T118 53T69 118T51 197Q51 232 64 262T98 315T147 355T202 381Q176 390 154 405T114 439T86 482T76 533Q76 576 95 609T146 664T216 698T295
710Q334 710 373 699T443 665T493 610T513 534Q513 506 503 483T475 440T435 405T386 381Q417 370 445 353T493 311T525 258T537 194ZM487 198Q487 236 470 266T424 316T362 348T293 359Q258 359 224 348T163 315T119 264T102 197Q102 159 119 130T165 80T227 48T296
37Q330 37 364 48T426 81T470 131T487 198ZM127 531Q127 499 142 475T182 434T235 409T294 400Q323 400 353 409T407 435T446 476T462 533Q462 564 448 588T410 629T356 655T293 664Q261 664 231 655T178 629T141 587T127 531Z" />
<glyph unicode="9" glyph-name="nine" horiz-adv-x="583" d="M37 328Q37 379 56 423T109 500T188 552T286 571Q341 571 387 551T467 494T520 403T539 282Q539 170 520 88T467 -48T386 -128T281 -154Q209 -154 154 -117T71 -16L106 11Q126 -43 174 -76T281 -109Q328
-109 366 -87T432 -21T474 86T490 230Q479 198 458 172T410 126T349 97T280 86Q229 86 185 105T108 157T56 234T37 328ZM285 526Q244 526 208 511T144 468T101 405T85 328Q85 287 101 251T144 188T207 145T285 129Q326 129 362 145T426 188T469 251T485 328Q485
368 469 404T426 467T363 510T285 526Z" />
<glyph unicode=":" glyph-name="colon" horiz-adv-x="177" d="M67 432V517H110V432H67ZM67 0V85H110V0H67Z" />
<glyph unicode=";" glyph-name="semicolon" horiz-adv-x="191" d="M71 432V517H115V432H71ZM74 -81L88 -2H70V85H121V-2L101 -81H74Z" />
<glyph unicode="&lt;" glyph-name="less" horiz-adv-x="506" d="M34 273L452 524V470L106 259L452 48V-7L34 243V273Z" />
<glyph unicode="=" glyph-name="equal" horiz-adv-x="437" d="M69 208V246H368V208H69ZM69 306V344H368V306H69Z" />
<glyph unicode="&gt;" glyph-name="greater" horiz-adv-x="506" d="M472 243L54 -7V48L399 259L54 470V524L472 273V243Z" />
<glyph unicode="?" glyph-name="question" horiz-adv-x="473" d="M163 193Q163 232 168 260T185 308T212 343T248 370Q269 382 294 394T340 424T376 468T390 533Q390 569 378 596T345 641T298 667T243 676Q186 676 140 646T71 568L35 590Q48 621 70 645T120 685T179
710T243 719Q280 719 314 707T376 672T419 613T435 530Q435 488 423 459T390 410T343 376T291 349Q270 339 255 329T229 301T213 258T207 193H163ZM164 0V98H208V0H164Z" />
<glyph unicode="@" glyph-name="at" horiz-adv-x="834" d="M416 603Q490 603 555 575T670 496T748 375T777 222Q777 208 776 185T769 135T755 81T729 33T690 -2T633 -16Q608 -16 593 -9T570 12T558 42T552 79Q525 50 481 29T384 8Q315 8 275 45T235 139Q235 176
251 201T294 242T353 263T419 270Q464 270 498 262T549 247Q549 285 543 316T523 370T484 405T422 418Q384 418 348 406T281 370L265 401Q300 424 340 438T426 453Q479 453 510 435T558 388T580 322T585 249V111Q585 89 586 71T593 41T609 22T637 15Q669 15 690
37T724 90T742 158T747 223Q747 296 722 360T651 472T546 546T415 574Q347 574 286 549T179 477T105 368T78 230Q78 158 103 95T174 -16T280 -90T411 -117Q491 -117 564 -79L576 -106Q497 -146 411 -146Q336 -146 270 -118T155 -39T77 80T48 230Q48 314 78 382T160
500T277 576T416 603ZM480 64Q502 74 515 87T536 114T546 143T548 173V215Q542 216 530 219T502 227T463 234T416 238Q389 238 363 233T317 217T284 188T272 141Q272 95 305 69T386 42Q411 42 436 48T480 64Z" />
<glyph unicode="A" glyph-name="A" horiz-adv-x="675" d="M316 710H360L660 0H606L507 234H168L69 0H14L316 710ZM493 276L338 648L180 276H493Z" />
<glyph unicode="B" glyph-name="B" horiz-adv-x="662" d="M616 184Q616 145 601 112T560 53T499 14T425 0H93V710H424Q461 710 491 694T542 653T574 595T586 529Q586 475 559 430T484 364Q545 346 580 297T616 184ZM565 191Q565 219 555 245T527 292T485 325T432
337H144V46H425Q455 46 480 58T524 90T554 137T565 191ZM144 664V380H404Q433 380 457 392T498 423T526 469T536 522Q536 551 527 576T501 621T461 652T410 664H144Z" />
<glyph unicode="C" glyph-name="C" horiz-adv-x="690" d="M44 360Q44 424 66 487T132 601T237 682T380 714Q475 714 542 671T642 559L600 535Q581 572 556 597T501 637T439 660T376 667Q308 667 256 640T168 568T114 469T95 357Q95 294 117 237T177 137T267 67T379
41Q411 41 445 49T510 74T568 117T613 180L657 159Q639 119 608 88T539 36T459 5T375 -6Q302 -6 242 26T137 109T69 226T44 360Z" />
<glyph unicode="D" glyph-name="D" horiz-adv-x="713" d="M93 0V710H329Q413 710 476 682T582 606T645 494T666 356Q666 275 643 210T575 98T469 26T329 0H93ZM615 356Q615 423 596 479T541 577T451 641T329 664H144V46H329Q399 46 452 69T542 135T596 233T615 356Z" />
<glyph unicode="E" glyph-name="E" horiz-adv-x="612" d="M566 46V0H93V710H557V664H144V385H505V341H144V46H566Z" />
<glyph unicode="F" glyph-name="F" horiz-adv-x="594" d="M93 0V710H555V664H144V382H493V338H144V0H93Z" />
<glyph unicode="G" glyph-name="G" horiz-adv-x="717" d="M616 111Q513 -5 377 -5Q305 -5 244 26T138 108T69 224T44 356Q44 426 68 491T136 606T240 685T371 715Q424 715 466 704T542 672T600 623T642 560L600 535Q564 605 505 636T370 668Q307 668 256 641T169
570T114 470T95 355Q95 292 117 236T177 136T268 68T380 42Q445 42 503 72T616 167V304H455V345H660V0H616V111Z" />
<glyph unicode="H" glyph-name="H" horiz-adv-x="735" d="M643 710V0H592V340H144V0H93V710H144V386H592V710H643Z" />
<glyph unicode="I" glyph-name="I" horiz-adv-x="237" d="M93 0V710H144V0H93Z" />
<glyph unicode="J" glyph-name="J" horiz-adv-x="478" d="M32 74Q57 57 92 47T170 36Q228 36 262 57T314 118T337 216T343 349V710H394V349Q394 268 387 202T357 88T289 15T170 -11Q80 -11 16 33L32 74Z" />
<glyph unicode="K" glyph-name="K" horiz-adv-x="635" d="M93 0V710H144V279L558 710H617L322 399L632 0H574L289 368L144 219V0H93Z" />
<glyph unicode="L" glyph-name="L" horiz-adv-x="581" d="M93 0V710H144V46H568V0H93Z" />
<glyph unicode="M" glyph-name="M" horiz-adv-x="880" d="M736 0V614L456 135H424L144 614V0H93V710H144L440 202L736 710H787V0H736Z" />
<glyph unicode="N" glyph-name="N" horiz-adv-x="773" d="M144 614V0H93V710H132L630 85V710H681V0H634L144 614Z" />
<glyph unicode="O" glyph-name="O" horiz-adv-x="753" d="M376 -5Q302 -5 241 26T136 107T68 222T44 355Q44 426 69 491T139 606T245 685T377 715Q451 715 512 684T617 601T685 486T709 355Q709 283 684 218T614 104T508 25T376 -5ZM95 355Q95 294 115 238T173
138T263 68T377 42Q441 42 492 69T580 140T637 241T657 355Q657 416 636 472T578 572T489 642T377 668Q313 668 261 641T172 570T115 469T95 355Z" />
<glyph unicode="P" glyph-name="P" horiz-adv-x="621" d="M93 0V710H385Q430 710 468 691T533 641T576 570T592 490Q592 447 578 407T537 336T473 287T391 268H144V0H93ZM144 315H389Q424 315 452 329T499 368T529 424T540 490Q540 525 528 556T494 612T444 650T383
664H144V315Z" />
<glyph unicode="Q" glyph-name="Q" horiz-adv-x="752" d="M576 67Q534 33 484 14T376 -5Q302 -5 241 26T136 107T68 222T44 355Q44 426 69 491T139 606T245 685T377 715Q451 715 512 684T617 601T685 486T709 355Q709 280 682 213T606 95L685 0H632L576 67ZM377
42Q427 42 469 58T545 104L461 206H514L574 133Q614 178 635 236T657 355Q657 416 636 472T578 572T489 642T377 668Q313 668 261 641T172 570T115 469T95 355Q95 294 115 238T173 138T263 68T377 42Z" />
<glyph unicode="R" glyph-name="R" horiz-adv-x="649" d="M93 0V710H388Q433 710 471 691T536 641T579 570T595 490Q595 451 583 415T549 349T496 301T428 276L605 0H546L374 268H144V0H93ZM144 315H393Q427 315 455 330T503 369T533 425T544 490Q544 524 532
555T498 611T448 649T386 664H144V315Z" />
<glyph unicode="S" glyph-name="S" horiz-adv-x="605" d="M506 592Q437 669 311 669Q207 669 160 630T112 523Q112 489 124 467T161 428T226 401T320 378Q377 366 423 352T502 315T552 261T570 182Q570 135 552 100T500 42T420 6T316 -6Q150 -6 35 100L62 141Q107
94 172 67T318 39Q411 39 463 73T516 176Q516 211 502 235T461 278T391 309T293 334Q236 346 193 359T120 393T75 443T60 516Q60 564 78 601T130 663T209 702T311 715Q380 715 434 695T532 632L506 592Z" />
<glyph unicode="T" glyph-name="T" horiz-adv-x="606" d="M589 664H329V0H278V664H18V710H589V664Z" />
<glyph unicode="U" glyph-name="U" horiz-adv-x="756" d="M378 42Q450 42 497 69T572 140T611 240T623 353V710H674V353Q674 282 659 217T608 103T517 24T379 -5Q294 -5 237 25T146 106T97 221T82 353V710H133V353Q133 294 144 238T184 139T260 69T378 42Z" />
<glyph unicode="V" glyph-name="V" horiz-adv-x="679" d="M69 710L339 64L609 710H663L363 0H316L15 710H69Z" />
<glyph unicode="W" glyph-name="W" horiz-adv-x="1043" d="M365 705H415L521 447L627 705H677L552 406L701 60L973 710H1029L725 0H678L522 365L365 0H318L15 710H70L343 60L490 406L365 705Z" />
<glyph unicode="X" glyph-name="X" horiz-adv-x="628" d="M66 710L315 387L563 710H621L342 350L613 0H555L315 313L74 0H15L286 350L7 710H66Z" />
<glyph unicode="Y" glyph-name="Y" horiz-adv-x="647" d="M75 710L323 317L572 710H629L349 268V0H298V270L19 710H75Z" />
<glyph unicode="Z" glyph-name="Z" horiz-adv-x="627" d="M30 42L535 664H37V710H595V668L94 46H593V0H30V42Z" />
<glyph unicode="[" glyph-name="bracketleft" horiz-adv-x="247" d="M91 -40V740H192V697H139V3H192V-40H91Z" />
<glyph unicode="\" glyph-name="backslash" horiz-adv-x="548" d="M86 710L521 0H463L27 710H86Z" />
<glyph unicode="]" glyph-name="bracketright" horiz-adv-x="247" d="M54 -40V3H108V697H54V740H155V-40H54Z" />
<glyph unicode="^" glyph-name="asciicircum" horiz-adv-x="526" d="M44 303L242 710H285L482 303H436L264 659L88 303H44Z" />
<glyph unicode="_" glyph-name="underscore" horiz-adv-x="519" d="M66 -46V0H452V-46H66Z" />
<glyph unicode="`" glyph-name="grave" horiz-adv-x="213" d="M49 730H106L168 645L134 629L49 730Z" />
<glyph unicode="a" glyph-name="a" horiz-adv-x="537" d="M206 -10Q170 -10 139 2T85 36T48 87T35 151Q35 185 51 213T95 261T164 293T252 305Q294 305 336 298T413 277V328Q413 402 371 445T257 489Q219 489 177 473T90 427L71 461Q171 529 261 529Q355 529 409
475T463 324V70Q463 45 485 45V0Q480 -1 475 -1T465 -2Q445 -2 433 11T419 44V87Q383 40 327 15T206 -10ZM216 30Q274 30 322 52T397 110Q413 131 413 150V242Q377 256 338 263T257 270Q218 270 186 262T131 238T96 202T83 154Q83 128 93 105T121 66T163 40T216
30Z" />
<glyph unicode="b" glyph-name="b" horiz-adv-x="612" d="M321 -10Q260 -10 207 22T124 104V0H78V730H128V407Q165 461 215 495T332 529Q387 529 431 506T506 444T553 357T570 258Q570 204 551 156T499 71T420 12T321 -10ZM311 35Q357 35 395 54T460 104T503 176T519
258Q519 302 505 342T464 414T401 465T320 484Q287 484 258 473T205 442T161 398T128 346V174Q131 145 150 120T195 76T253 46T311 35Z" />
<glyph unicode="c" glyph-name="c" horiz-adv-x="545" d="M42 262Q42 317 61 366T114 451T195 508T298 529Q369 529 423 497T504 408L455 392Q432 435 390 459T296 484Q253 484 216 467T152 420T108 350T92 262Q92 215 108 174T152 102T217 53T297 35Q324 35 350
43T399 64T438 94T461 131L510 117Q500 90 480 67T431 26T369 0T299 -10Q244 -10 197 11T116 70T62 157T42 262Z" />
<glyph unicode="d" glyph-name="d" horiz-adv-x="615" d="M292 -10Q238 -10 192 12T113 72T61 158T42 259Q42 313 60 362T110 448T185 507T281 529Q315 529 345 519T401 493T448 454T484 407V730H534V70Q534 45 555 45V0Q549 -1 545 -1T537 -2Q517 -2 503 13T489
46V104Q457 52 404 21T292 -10ZM301 35Q328 35 359 46T416 76T462 121T484 175V346Q473 374 453 399T406 443T350 473T292 484Q247 484 210 465T147 414T107 342T93 258Q93 213 109 173T153 102T219 53T301 35Z" />
<glyph unicode="e" glyph-name="e" horiz-adv-x="583" d="M299 -10Q244 -10 197 11T116 70T62 157T42 262Q42 317 61 365T115 450T195 508T296 529Q351 529 398 508T479 450T532 365T551 262Q551 257 551 250T550 240H94Q97 195 115 157T160 90T224 46T301 30Q328
30 354 37T402 58T442 89T470 130L514 118Q503 90 482 67T432 26T369 0T299 -10ZM503 280Q500 326 483 364T438 429T374 472T297 488Q256 488 220 473T157 430T113 364T93 280H503Z" />
<glyph unicode="f" glyph-name="f" horiz-adv-x="318" d="M101 0V479H28V520H101V537Q101 633 140 686T248 740Q278 740 306 731T352 707L334 671Q320 682 300 689T257 696Q206 696 179 656T151 538V520H299V479H151V0H101Z" />
<glyph unicode="g" glyph-name="g" horiz-adv-x="612" d="M288 -8Q234 -8 189 14T112 74T61 160T42 259Q42 312 59 361T109 447T185 507T284 529Q352 529 402 494T488 407V520H534V-10Q534 -63 514 -103T461 -169T383 -209T289 -223Q244 -223 208 -215T145 -191T96
-153T58 -103L92 -80Q123 -133 176 -157T289 -182Q329 -182 364 -171T426 -139T468 -85T484 -10V104Q452 53 399 23T288 -8ZM300 35Q333 35 364 47T421 80T463 125T484 175V346Q472 376 452 401T407 445T352 473T292 484Q245 484 208 464T146 412T107 340T93 258Q93
213 109 173T153 102T219 53T300 35Z" />
<glyph unicode="h" glyph-name="h" horiz-adv-x="576" d="M503 0H453V290Q453 483 324 483Q292 483 262 471T205 437T158 386T128 322V0H78V730H128V396Q160 457 216 493T338 529Q381 529 412 513T463 467T493 395T503 299V0Z" />
<glyph unicode="i" glyph-name="i" horiz-adv-x="207" d="M78 0V520H128V0H78ZM78 638V730H128V638H78Z" />
<glyph unicode="j" glyph-name="j" horiz-adv-x="214" d="M-10 -177Q-42 -177 -69 -169T-119 -140L-92 -107Q-75 -121 -55 -126T-15 -131Q4 -131 22 -124T54 -103T77 -71T86 -30V520H136V-28Q136 -61 124 -88T90 -135T43 -166T-10 -177ZM86 638V730H136V638H86Z" />
<glyph unicode="k" glyph-name="k" horiz-adv-x="522" d="M454 0L251 278L128 165V0H78V730H128V220L444 519H502L285 308L509 0H454Z" />
<glyph unicode="l" glyph-name="l" horiz-adv-x="259" d="M82 730H133V103Q133 74 149 57T195 40Q206 40 221 42T250 50L260 10Q243 3 218 -1T175 -6Q133 -6 108 19T82 88V730Z" />
<glyph unicode="m" glyph-name="m" horiz-adv-x="915" d="M842 0H792V290Q792 389 762 436T668 483Q636 483 607 471T554 438T513 387T485 321V0H435V290Q435 390 405 436T312 483Q280 483 252 472T199 439T157 388T128 322V0H78V520H125V396Q157 459 209 494T324
529Q390 529 431 490T480 388Q554 529 684 529Q769 529 805 469T842 299V0Z" />
<glyph unicode="n" glyph-name="n" horiz-adv-x="576" d="M503 0H453V290Q453 391 425 437T334 483Q301 483 269 471T208 437T159 386T128 322V0H78V520H125V396Q141 426 164 450T217 492T280 519T348 529Q433 529 468 470T503 299V0Z" />
<glyph unicode="o" glyph-name="o" horiz-adv-x="592" d="M296 -10Q241 -10 195 11T114 70T61 156T42 259Q42 314 61 363T115 449T195 507T296 529Q350 529 396 508T476 449T530 363T550 259Q550 205 531 156T477 70T397 12T296 -10ZM92 257Q92 211 108 171T151
100T216 53T295 35Q337 35 374 52T439 101T483 172T499 260Q499 306 483 346T439 417T375 466T296 484Q254 484 217 466T153 417T109 345T92 257Z" />
<glyph unicode="p" glyph-name="p" horiz-adv-x="612" d="M332 -10Q265 -10 213 25T128 112V-213H78V520H124V416Q156 466 208 497T321 529Q375 529 421 506T500 446T551 359T570 259Q570 205 553 156T505 70T429 12T332 -10ZM320 35Q365 35 402 54T465 104T505
176T519 259Q519 304 503 344T459 416T392 465T311 484Q284 484 254 473T196 442T150 397T128 344V173Q141 144 161 119T206 75T260 46T320 35Z" />
<glyph unicode="q" glyph-name="q" horiz-adv-x="612" d="M280 -10Q226 -10 183 12T108 72T59 158T42 259Q42 313 61 362T114 448T193 507T291 529Q352 529 405 497T488 415V520H534V-141Q534 -166 555 -167V-211Q550 -212 546 -212T538 -212Q515 -212 500 -198T484
-159V112Q402 -10 280 -10ZM293 35Q326 35 354 46T407 75T450 117T484 169V339Q480 368 462 394T418 440T360 472T299 484Q254 484 216 465T151 414T108 341T93 258Q93 213 108 173T149 102T212 53T293 35Z" />
<glyph unicode="r" glyph-name="r" horiz-adv-x="341" d="M324 475Q254 473 202 434T128 325V0H78V520H126V392Q153 447 197 481T293 521Q303 522 311 522T324 522V475Z" />
<glyph unicode="s" glyph-name="s" horiz-adv-x="481" d="M243 -10Q183 -10 128 10T32 70L57 104Q99 66 144 48T243 30Q311 30 352 58T394 138Q394 162 384 178T352 206T300 227T228 246Q184 256 152 266T98 290T67 324T56 375Q56 414 71 443T112 491T173 519T247
529Q308 529 355 509T428 456L400 429Q374 459 333 474T244 489Q215 489 190 483T145 464T115 431T104 382Q104 359 111 345T135 321T178 304T240 287Q289 275 327 264T390 237T429 199T443 143Q443 73 389 32T243 -10Z" />
<glyph unicode="t" glyph-name="t" horiz-adv-x="320" d="M310 25Q306 23 297 18T273 7T240 -2T201 -6Q180 -6 162 0T129 18T107 47T99 87V479H26V520H99V698H149V520H270V479H149V99Q149 70 169 56T214 41Q245 41 267 51T295 65L310 25Z" />
<glyph unicode="u" glyph-name="u" horiz-adv-x="587" d="M239 -10Q73 -10 73 220V520H123V227Q123 35 254 35Q287 35 318 46T376 78T423 128T456 192V520H506V70Q506 45 527 45V0Q522 -1 518 -1T512 -1Q492 -1 477 11T461 45V123Q427 60 368 25T239 -10Z" />
<glyph unicode="v" glyph-name="v" horiz-adv-x="528" d="M238 0L21 520H73L265 50L458 520H507L290 0H238Z" />
<glyph unicode="w" glyph-name="w" horiz-adv-x="806" d="M737 520H787L562 0H520L403 275L286 0H244L19 520H68L267 55L376 311L288 519H331L403 347L474 519H518L430 311L539 55L737 520Z" />
<glyph unicode="x" glyph-name="x" horiz-adv-x="496" d="M72 520L240 305L248 291L256 305L423 520H479L277 259L478 0H423L256 214L248 227L240 214L73 0H18L219 259L17 520H72Z" />
<glyph unicode="y" glyph-name="y" horiz-adv-x="540" d="M113 -176Q118 -177 128 -177Q138 -177 146 -176T163 -171Q169 -168 174 -163T188 -140T211 -90T249 0L17 520H69L276 49L469 520H518L233 -164Q222 -192 198 -207T131 -223Q127 -223 123 -223T113 -222V-176Z" />
<glyph unicode="z" glyph-name="z" horiz-adv-x="490" d="M32 36L400 481H38V520H456V484L89 39H454V0H32V36Z" />
<glyph unicode="{" glyph-name="braceleft" horiz-adv-x="248" d="M141 697V420Q141 410 137 392T116 360Q132 346 136 328T141 300V12H196V-31H117Q109 -31 102 -25T94 -1V289Q94 307 86 323T59 341V381Q69 381 76 387T87 401T92 417T94 431V710Q94 730 103 735T117
740H196V697H141Z" />
<glyph unicode="|" glyph-name="bar" horiz-adv-x="223" d="M89 -130V775H134V-130H89Z" />
<glyph unicode="}" glyph-name="braceright" horiz-adv-x="248" d="M52 697V740H131Q135 740 144 735T154 710V431Q154 426 155 418T161 401T171 387T189 381V341Q170 339 162 323T154 289V-1Q154 -18 147 -24T131 -31H52V12H107V300Q107 309 111 327T132 360Q116
374 112 392T107 420V697H52Z" />
<glyph unicode="~" glyph-name="asciitilde" horiz-adv-x="493" d="M68 245Q68 248 73 263T90 296T120 326T166 340Q188 340 207 331T246 310T283 290T322 280Q341 280 354 287T375 304T388 322T392 333H426Q426 331 421 318T404 288T372 258T322 245Q298 245
277 254T237 274T201 295T166 304Q149 304 137 295T117 275T106 255T102 245H68V245Z" />
<glyph unicode="&#xa0;" glyph-name="uni00A0" horiz-adv-x="257" />
<glyph unicode="&#xa1;" glyph-name="exclamdown" horiz-adv-x="242" d="M146 498V-1H96V498H146ZM146 716V614H96V716H146Z" />
<glyph unicode="&#xa2;" glyph-name="cent" horiz-adv-x="554" d="M276 -120V-9Q225 -5 183 19T109 81T61 164T44 258Q44 309 60 356T107 439T180 500T276 528V645H307V528Q383 526 431 494T506 408L458 392Q433 437 394 459T307 483V36Q328 36 353 43T400 62T440
92T464 131L513 117Q502 85 479 62T426 22T366 -2T307 -10V-120H276ZM95 258Q95 217 108 180T146 112T204 63T276 38V481Q233 478 200 458T143 406T107 336T95 258Z" />
<glyph unicode="&#xa3;" glyph-name="sterling" horiz-adv-x="487" d="M50 370H150Q138 392 126 413T103 455T85 498T78 546Q78 581 92 611T129 665T185 701T253 715Q306 715 352 687T427 610L395 579Q371 622 332 647T251 672Q225 672 203 662T163 635T136 594T126
544Q126 521 133 500T151 457T175 415T199 370H375V329H216Q222 311 225 292T229 252Q229 226 224 202T205 153T171 101T120 41Q157 49 192 49Q214 49 232 46T268 40T301 33T337 30Q357 30 378 34T429 49L442 9Q389 -15 334 -15Q312 -15 293 -12T254 -4T216 3T173
7Q150 7 122 3T70 -7L55 30Q92 67 116 97T156 152T177 201T183 249Q183 271 179 291T168 329H50V370Z" />
<glyph unicode="&#xa4;" glyph-name="currency" horiz-adv-x="535" d="M152 475Q175 495 204 506T267 518Q301 518 330 506T383 474L453 545L480 519L409 448Q426 425 436 397T446 336Q446 273 407 223L480 152L456 128L383 198Q360 178 331 167T267 156Q233 156
204 166T152 197L81 128L57 152L128 222Q89 272 89 336Q89 401 126 449L57 519L83 545L152 475ZM132 335Q132 305 142 280T171 235T214 204T267 193Q295 193 319 204T362 235T391 281T402 337Q402 367 392 393T363 438T320 469T267 480Q239 480 215 469T172 438T143
392T132 335Z" />
<glyph unicode="&#xa5;" glyph-name="yen" horiz-adv-x="667" d="M412 357H500V319H390L358 268V242H500V205H358V0H307V205H166V242H307V270L277 319H166V357H255L28 710H85L333 317L582 710H638L412 357Z" />
<glyph unicode="&#xa6;" glyph-name="brokenbar" horiz-adv-x="226" d="M136 280V-130H91V280H136ZM136 775V365H91V775H136Z" />
<glyph unicode="&#xa7;" glyph-name="section" horiz-adv-x="497" d="M405 190Q454 160 454 84Q454 41 436 9T389 -45T326 -77T258 -88Q224 -88 196 -81T143 -61T100 -32T64 0L97 31Q135 -5 173 -22T257 -40Q283 -40 309 -32T356 -8T390 31T403 83Q403 114 391
133T358 163T313 178T264 183Q223 185 188 195T128 224T87 273T72 341Q72 368 80 392T101 430Q77 446 62 477T46 549Q46 587 63 617T107 670T168 703T238 715Q309 715 349 690T415 627L375 609Q366 627 351 638T317 656T278 666T240 669Q214 669 188 661T142 638T110
600T97 549Q97 518 108 497T138 462T183 442T241 436Q277 436 312 428T375 402T420 355T438 284Q438 255 429 230T405 190ZM121 336Q121 301 133 280T166 247T211 230T263 222T314 216T357 205Q372 218 381 239T390 284Q390 315 376 336T341 370T293 388T243 393Q188
393 148 410Q136 398 129 378T121 336Z" />
<glyph unicode="&#xa8;" glyph-name="dieresis" horiz-adv-x="294" d="M57 640V728H101V640H57ZM193 640V728H237V640H193Z" />
<glyph unicode="&#xa9;" glyph-name="copyright" horiz-adv-x="829" d="M414 -7Q336 -7 269 20T153 96T77 211T49 355Q49 432 76 498T153 612T269 687T414 715Q493 715 560 688T676 612T752 498T780 355Q780 277 753 211T676 97T560 21T414 -7ZM414 21Q485 21
546 45T653 113T724 217T750 352Q750 424 725 485T655 592T549 662T414 687Q342 687 281 662T175 593T105 487T79 354Q79 283 104 222T174 117T280 47T414 21ZM421 124Q378 124 337 140T264 186T213 259T193 355Q193 396 206 437T247 512T316 567T415 588Q477 588
527 561T598 481L550 465Q539 489 523 504T487 528T449 540T415 543Q371 543 339 526T286 482T255 422T244 355Q244 310 260 276T302 218T358 182T418 169Q437 169 458 174T499 190T534 216T558 251L606 237Q600 220 585 201T545 164T490 136T421 124Z" />
<glyph unicode="&#xaa;" glyph-name="ordfeminine" horiz-adv-x="431" d="M168 348Q143 348 121 356T83 379T58 414T49 457Q49 504 90 533T198 563Q227 563 255 559T305 545V576Q305 621 279 647T204 674Q151 674 89 633L72 664Q142 710 207 710Q276 710 315 674T354
570V417Q354 398 371 397V354Q363 353 358 353T347 353Q315 356 312 387L311 413Q286 381 249 365T168 348ZM180 386Q215 386 246 398T293 432Q305 445 305 459V514Q282 524 257 527T206 531Q156 531 126 512T96 460Q96 428 120 407T180 386Z" />
<glyph unicode="&#xab;" glyph-name="guillemotleft" horiz-adv-x="552" d="M41 273L285 448V403L83 259L285 116V71L41 243V273ZM243 273L487 448V403L285 259L487 116V71L243 243V273Z" />
<glyph unicode="&#xac;" glyph-name="logicalnot" horiz-adv-x="574" d="M504 354V131H459V308H78V354H504Z" />
<glyph unicode="&#xad;" glyph-name="uni00AD" horiz-adv-x="559" d="M67 249V295H492V249H67Z" />
<glyph unicode="&#xae;" glyph-name="registered" horiz-adv-x="829" d="M414 -7Q336 -7 269 20T153 96T77 211T49 355Q49 432 76 498T153 612T269 687T414 715Q493 715 560 688T676 612T752 498T780 355Q780 277 753 211T676 97T560 21T414 -7ZM414 21Q485 21
546 45T653 113T724 218T750 355Q750 426 725 486T655 591T549 661T414 687Q342 687 281 662T175 592T105 487T80 355Q80 283 105 222T174 117T280 47T414 21ZM265 581H455Q484 581 508 569T549 536T577 491T587 439Q587 414 579 391T557 350T523 319T479 303L592
125H547L437 298H305V125H265V581ZM456 334Q501 334 524 365T548 439Q548 484 521 513T452 543H305V334H456Z" />
<glyph unicode="&#xaf;" glyph-name="overscore" horiz-adv-x="390" d="M53 672V709H338V672H53Z" />
<glyph unicode="&#xb0;" glyph-name="degree" horiz-adv-x="261" d="M53 647Q53 679 75 701T130 724Q163 724 185 702T208 647Q208 613 186 591T130 568Q98 568 76 591T53 647ZM98 679Q85 664 85 646Q85 627 98 614Q104 608 112 604T130 600Q140 600 148 604T163
614Q176 627 176 646Q176 664 163 679Q151 692 130 692Q110 692 98 679Z" />
<glyph unicode="&#xb1;" glyph-name="plusminus" horiz-adv-x="468" d="M77 70V113H391V70H77ZM391 382V339H257V195H211V339H77V382H211V526H257V382H391Z" />
<glyph unicode="&#xb2;" glyph-name="twosuperior" horiz-adv-x="381" d="M37 413Q37 451 45 479T69 529T108 565T162 592Q185 601 209 609T254 628T287 656T300 697Q300 729 274 753T194 777Q168 777 148 771T111 757T84 738T66 720L42 744Q45 748 56 759T86
781T134 802T199 811Q234 811 260 802T304 777T330 741T339 696Q339 665 325 644T289 608T243 584T197 568Q160 556 139 541T107 510T93 478T90 447H337V413H37Z" />
<glyph unicode="&#xb3;" glyph-name="threesuperior" horiz-adv-x="386" d="M190 407Q127 407 85 432T37 499L60 520Q61 506 71 492T99 467T139 450T190 443Q215 443 237 448T275 464T300 488T310 519Q310 556 270 577T161 598H138V630H161Q225 630 260 647T296
700Q296 718 287 732T263 756T228 772T184 778Q142 778 112 763T67 721L42 747Q59 776 98 793T184 811Q216 811 243 803T291 780T322 745T334 702Q334 633 244 615Q291 607 318 580T346 514Q346 490 334 470T300 436T251 415T190 407Z" />
<glyph unicode="&#xb4;" glyph-name="acute" horiz-adv-x="213" d="M84 629L49 645L110 730H168L84 629Z" />
<glyph unicode="&#xb5;" glyph-name="mu" horiz-adv-x="613" d="M85 520H135V227Q135 35 267 35Q300 35 331 46T389 78T436 128T469 192V520H519V70Q519 45 540 45V0Q535 -1 532 -1T525 -1Q503 -1 489 12T474 48V123Q459 94 437 70T388 28T329 0T265 -10Q214 -10
182 14T133 82V-212H85V520Z" />
<glyph unicode="&#xb6;" glyph-name="paragraph" horiz-adv-x="588" d="M33 473Q33 585 107 647T315 710H541V669H471V-80H426V237H346V-80H301V237Q239 238 190 254T105 301T52 375T33 473ZM78 474Q78 424 96 388T144 329T215 293T301 279V669Q192 668 135 617T78
474ZM426 669H346V279H426V669Z" />
<glyph unicode="&#xb7;" glyph-name="middot" horiz-adv-x="177" d="M67 248V349H111V248H67Z" />
<glyph unicode="&#xb8;" glyph-name="cedilla" horiz-adv-x="271" d="M37 -125Q51 -132 74 -138T124 -144Q182 -144 182 -107Q182 -87 169 -79T133 -71Q112 -71 89 -76T52 -85L108 15L135 3L101 -53Q110 -49 121 -48T141 -47Q175 -47 194 -62T213 -106Q213 -138
189 -154T120 -171Q91 -171 67 -166T23 -152L37 -125Z" />
<glyph unicode="&#xb9;" glyph-name="onesuperior" horiz-adv-x="264" d="M243 447V412H49V447H131V769Q126 763 115 755T90 739T62 726T35 721V756Q51 756 67 764T98 782T121 801T131 811H167V447H243Z" />
<glyph unicode="&#xba;" glyph-name="ordmasculine" horiz-adv-x="449" d="M224 348Q185 348 153 362T96 402T59 459T46 528Q46 565 59 598T96 656T152 695T224 710Q263 710 295 696T352 656T389 598T403 528Q403 492 390 460T353 402T296 363T224 348ZM90 527Q90
498 100 472T129 427T171 396T224 385Q252 385 276 396T319 427T348 473T359 529Q359 559 349 585T320 630T277 660T224 671Q197 671 173 660T130 630T101 584T90 527Z" />
<glyph unicode="&#xbb;" glyph-name="guillemotright" horiz-adv-x="552" d="M511 243L267 71V116L469 259L267 403V448L511 273V243ZM310 243L65 71V116L268 259L65 403V448L310 273V243Z" />
<glyph unicode="&#xbc;" glyph-name="onequarter" horiz-adv-x="795" d="M668 0V106H438V138L678 393H703V140H760V106H703V0H668ZM478 140H668V342L478 140ZM120 21L399 365L673 713L701 690L422 345L147 -3L120 21ZM254 367V332H60V367H142V689Q137 683 126
675T101 659T73 646T46 641V676Q62 676 78 684T109 702T132 721T142 731H178V367H254Z" />
<glyph unicode="&#xbd;" glyph-name="onehalf" horiz-adv-x="838" d="M497 0Q497 76 529 116T621 180Q643 189 667 197T710 216T742 243T755 284Q755 316 731 338T652 361Q626 361 607 355T572 341T546 322T528 303L502 331Q505 335 516 346T546 368T593 389T657
398Q726 398 760 365T795 283Q795 252 781 231T746 196T701 172T656 156Q620 145 599 132T567 102T553 69T550 34H796V0H497ZM89 21L368 365L642 713L670 690L391 345L116 -3L89 21ZM256 367V332H62V367H144V689Q139 683 128 675T103 659T75 646T48 641V676Q64
676 80 684T111 702T134 721T144 731H180V367H256Z" />
<glyph unicode="&#xbe;" glyph-name="threequarters" horiz-adv-x="810" d="M196 327Q133 327 91 352T43 419L66 440Q67 426 77 412T105 387T145 370T196 363Q221 363 243 368T281 384T306 408T316 439Q316 476 276 497T167 518H144V550H167Q231 550 266 567T302
620Q302 638 293 652T269 676T234 692T190 698Q148 698 118 683T73 641L48 667Q65 696 104 713T190 731Q222 731 249 723T297 700T328 665T340 622Q340 553 250 535Q297 527 324 500T352 434Q352 410 340 390T306 356T257 335T196 327ZM679 0V106H449V138L689 393H714V140H771V106H714V0H679ZM489
140H679V342L489 140ZM155 21L434 365L708 713L736 690L457 345L182 -3L155 21Z" />
<glyph unicode="&#xbf;" glyph-name="questiondown" horiz-adv-x="466" d="M306 313Q306 274 301 246T284 198T257 163T221 136Q200 124 175 112T129 82T93 38T79 -27Q79 -63 91 -90T124 -135T171 -161T226 -170Q283 -170 329 -140T398 -62L434 -84Q420 -115 398
-139T349 -179T290 -204T226 -213Q189 -213 155 -201T93 -166T50 -107T34 -24Q34 18 46 47T79 96T126 130T178 157Q199 167 214 177T240 205T256 248T262 313H306ZM305 506V408H261V506H305Z" />
<glyph unicode="&#xc0;" glyph-name="Agrave" horiz-adv-x="675" d="M316 710H360L660 0H606L507 234H168L69 0H14L316 710ZM493 276L338 648L180 276H493ZM254 918H311L373 833L339 817L254 918Z" />
<glyph unicode="&#xc1;" glyph-name="Aacute" horiz-adv-x="675" d="M316 710H360L660 0H606L507 234H168L69 0H14L316 710ZM493 276L338 648L180 276H493ZM337 816L302 832L363 917H421L337 816Z" />
<glyph unicode="&#xc2;" glyph-name="Acircumflex" horiz-adv-x="675" d="M316 710H360L660 0H606L507 234H168L69 0H14L316 710ZM493 276L338 648L180 276H493ZM223 836L319 917H356L453 836L423 819L338 882L253 819L223 836Z" />
<glyph unicode="&#xc3;" glyph-name="Atilde" horiz-adv-x="675" d="M316 710H360L660 0H606L507 234H168L69 0H14L316 710ZM493 276L338 648L180 276H493ZM399 834Q377 834 360 840T329 853T302 867T273 874Q256 874 246 867T231 852T224 836T222 826H188Q188
830 191 843T203 871T229 897T273 909Q293 909 308 903T338 889T366 875T400 869Q420 869 431 876T448 891T455 907T457 917H491Q491 912 488 899T475 871T447 846T399 834Z" />
<glyph unicode="&#xc4;" glyph-name="Adieresis" horiz-adv-x="675" d="M316 710H360L660 0H606L507 234H168L69 0H14L316 710ZM493 276L338 648L180 276H493ZM248 828V916H292V828H248ZM384 828V916H428V828H384Z" />
<glyph unicode="&#xc5;" glyph-name="Aring" horiz-adv-x="675" d="M316 710H360L660 0H606L507 234H168L69 0H14L316 710ZM493 276L338 648L180 276H493ZM269 855Q269 882 288 899T337 917Q366 917 385 900T405 855Q405 827 386 810T337 792Q308 792 289 809T269
855ZM337 894Q320 894 309 884T297 855Q297 838 308 827T337 815Q353 815 365 826T378 855Q378 873 366 883T337 894Z" />
<glyph unicode="&#xc6;" glyph-name="AE" horiz-adv-x="962" d="M434 710H908V664H498V386H854V339H498V46H917V0H448V234H181L30 0H-27L434 710ZM445 280V646L205 280H445Z" />
<glyph unicode="&#xc7;" glyph-name="Ccedilla" horiz-adv-x="687" d="M296 -125Q310 -132 333 -138T383 -144Q441 -144 441 -107Q441 -87 428 -79T392 -71Q371 -71 348 -76T311 -85L355 -5Q285 -2 227 31T128 115T63 230T40 360Q40 424 62 487T128 601T233 682T376
714Q471 714 538 671T638 559L596 535Q577 572 552 597T497 637T435 660T372 667Q304 667 252 640T164 568T110 469T91 357Q91 294 113 237T173 137T263 67T375 41Q407 41 441 49T506 74T564 117T609 180L653 159Q636 121 608 92T544 41T468 9T389 -5L360 -53Q369
-49 380 -48T400 -47Q434 -47 453 -62T472 -106Q472 -138 448 -154T379 -171Q350 -171 326 -166T282 -152L296 -125Z" />
<glyph unicode="&#xc8;" glyph-name="Egrave" horiz-adv-x="612" d="M566 46V0H93V710H557V664H144V385H505V341H144V46H566ZM256 918H313L375 833L341 817L256 918Z" />
<glyph unicode="&#xc9;" glyph-name="Eacute" horiz-adv-x="612" d="M339 816L304 832L365 917H423L339 816ZM566 46V0H93V710H557V664H144V385H505V341H144V46H566Z" />
<glyph unicode="&#xca;" glyph-name="Ecircumflex" horiz-adv-x="612" d="M225 836L321 917H358L455 836L425 819L340 882L255 819L225 836ZM566 46V0H93V710H557V664H144V385H505V341H144V46H566Z" />
<glyph unicode="&#xcb;" glyph-name="Edieresis" horiz-adv-x="612" d="M249 828V916H293V828H249ZM385 828V916H429V828H385ZM566 46V0H93V710H557V664H144V385H505V341H144V46H566Z" />
<glyph unicode="&#xcc;" glyph-name="Igrave" horiz-adv-x="237" d="M93 0V710H144V0H93ZM34 918H91L153 833L119 817L34 918Z" />
<glyph unicode="&#xcd;" glyph-name="Iacute" horiz-adv-x="237" d="M93 0V710H144V0H93ZM117 816L82 832L143 917H201L117 816Z" />
<glyph unicode="&#xce;" glyph-name="Icircumflex" horiz-adv-x="237" d="M93 0V710H144V0H93ZM3 836L99 917H136L233 836L203 819L118 882L33 819L3 836Z" />
<glyph unicode="&#xcf;" glyph-name="Idieresis" horiz-adv-x="237" d="M93 0V710H144V0H93ZM28 828V916H72V828H28ZM164 828V916H208V828H164Z" />
<glyph unicode="&#xd0;" glyph-name="Eth" horiz-adv-x="720" d="M100 0V336H35V378H100V710H336Q420 710 483 682T589 606T652 494T673 356Q673 275 650 210T582 98T476 26T336 0H100ZM622 356Q622 423 603 479T548 577T458 641T336 664H151V378H329V336H151V46H336Q406
46 459 69T549 135T603 233T622 356Z" />
<glyph unicode="&#xd1;" glyph-name="Ntilde" horiz-adv-x="773" d="M144 614V0H93V710H132L630 85V710H681V0H634L144 614ZM452 834Q430 834 413 840T382 853T355 867T326 874Q309 874 299 867T284 852T277 836T275 826H241Q241 830 244 843T256 871T282 897T326
909Q346 909 361 903T391 889T419 875T453 869Q473 869 484 876T501 891T508 907T510 917H544Q544 912 541 899T528 871T500 846T452 834Z" />
<glyph unicode="&#xd2;" glyph-name="Ograve" horiz-adv-x="753" d="M376 -5Q302 -5 241 26T136 107T68 222T44 355Q44 426 69 491T139 606T245 685T377 715Q451 715 512 684T617 601T685 486T709 355Q709 283 684 218T614 104T508 25T376 -5ZM95 355Q95 294 115
238T173 138T263 68T377 42Q441 42 492 69T580 140T637 241T657 355Q657 416 636 472T578 572T489 642T377 668Q313 668 261 641T172 570T115 469T95 355ZM293 918H350L412 833L378 817L293 918Z" />
<glyph unicode="&#xd3;" glyph-name="Oacute" horiz-adv-x="753" d="M376 816L341 832L402 917H460L376 816ZM376 -5Q302 -5 241 26T136 107T68 222T44 355Q44 426 69 491T139 606T245 685T377 715Q451 715 512 684T617 601T685 486T709 355Q709 283 684 218T614
104T508 25T376 -5ZM95 355Q95 294 115 238T173 138T263 68T377 42Q441 42 492 69T580 140T637 241T657 355Q657 416 636 472T578 572T489 642T377 668Q313 668 261 641T172 570T115 469T95 355Z" />
<glyph unicode="&#xd4;" glyph-name="Ocircumflex" horiz-adv-x="753" d="M262 836L358 917H395L492 836L462 819L377 882L292 819L262 836ZM376 -5Q302 -5 241 26T136 107T68 222T44 355Q44 426 69 491T139 606T245 685T377 715Q451 715 512 684T617 601T685
486T709 355Q709 283 684 218T614 104T508 25T376 -5ZM95 355Q95 294 115 238T173 138T263 68T377 42Q441 42 492 69T580 140T637 241T657 355Q657 416 636 472T578 572T489 642T377 668Q313 668 261 641T172 570T115 469T95 355Z" />
<glyph unicode="&#xd5;" glyph-name="Otilde" horiz-adv-x="753" d="M376 -5Q302 -5 241 26T136 107T68 222T44 355Q44 426 69 491T139 606T245 685T377 715Q451 715 512 684T617 601T685 486T709 355Q709 283 684 218T614 104T508 25T376 -5ZM95 355Q95 294 115
238T173 138T263 68T377 42Q441 42 492 69T580 140T637 241T657 355Q657 416 636 472T578 572T489 642T377 668Q313 668 261 641T172 570T115 469T95 355ZM438 834Q416 834 399 840T368 853T341 867T312 874Q295 874 285 867T270 852T263 836T261 826H227Q227 830
230 843T242 871T268 897T312 909Q332 909 347 903T377 889T405 875T439 869Q459 869 470 876T487 891T494 907T496 917H530Q530 912 527 899T514 871T486 846T438 834Z" />
<glyph unicode="&#xd6;" glyph-name="Odieresis" horiz-adv-x="753" d="M287 828V916H331V828H287ZM423 828V916H467V828H423ZM376 -5Q302 -5 241 26T136 107T68 222T44 355Q44 426 69 491T139 606T245 685T377 715Q451 715 512 684T617 601T685 486T709 355Q709
283 684 218T614 104T508 25T376 -5ZM95 355Q95 294 115 238T173 138T263 68T377 42Q441 42 492 69T580 140T637 241T657 355Q657 416 636 472T578 572T489 642T377 668Q313 668 261 641T172 570T115 469T95 355Z" />
<glyph unicode="&#xd7;" glyph-name="multiply" horiz-adv-x="451" d="M385 145L352 113L225 239L99 113L67 146L192 271L67 398L100 430L225 304L352 431L384 398L258 271L385 145Z" />
<glyph unicode="&#xd8;" glyph-name="Oslash" horiz-adv-x="753" d="M639 710L587 632Q645 579 677 506T709 355Q709 283 684 218T614 104T508 25T376 -5Q327 -5 283 9T203 48L172 0H115L165 77Q108 129 76 202T44 355Q44 426 69 491T139 606T245 685T377 715Q426
715 469 701T549 662L581 710H639ZM95 355Q95 286 120 225T192 118L523 622Q491 644 455 656T377 668Q313 668 261 641T172 570T115 469T95 355ZM657 355Q657 423 631 484T560 591L229 87Q261 66 298 54T377 42Q441 42 492 69T580 140T637 241T657 355Z" />
<glyph unicode="&#xd9;" glyph-name="Ugrave" horiz-adv-x="756" d="M378 42Q450 42 497 69T572 140T611 240T623 353V710H674V353Q674 282 659 217T608 103T517 24T379 -5Q294 -5 237 25T146 106T97 221T82 353V710H133V353Q133 294 144 238T184 139T260 69T378
42ZM295 918H352L414 833L380 817L295 918Z" />
<glyph unicode="&#xda;" glyph-name="Uacute" horiz-adv-x="756" d="M378 816L343 832L404 917H462L378 816ZM378 42Q450 42 497 69T572 140T611 240T623 353V710H674V353Q674 282 659 217T608 103T517 24T379 -5Q294 -5 237 25T146 106T97 221T82 353V710H133V353Q133
294 144 238T184 139T260 69T378 42Z" />
<glyph unicode="&#xdb;" glyph-name="Ucircumflex" horiz-adv-x="756" d="M264 836L360 917H397L494 836L464 819L379 882L294 819L264 836ZM378 42Q450 42 497 69T572 140T611 240T623 353V710H674V353Q674 282 659 217T608 103T517 24T379 -5Q294 -5 237 25T146
106T97 221T82 353V710H133V353Q133 294 144 238T184 139T260 69T378 42Z" />
<glyph unicode="&#xdc;" glyph-name="Udieresis" horiz-adv-x="756" d="M288 828V916H332V828H288ZM424 828V916H468V828H424ZM378 42Q450 42 497 69T572 140T611 240T623 353V710H674V353Q674 282 659 217T608 103T517 24T379 -5Q294 -5 237 25T146 106T97 221T82
353V710H133V353Q133 294 144 238T184 139T260 69T378 42Z" />
<glyph unicode="&#xdd;" glyph-name="Yacute" horiz-adv-x="647" d="M75 710L323 317L572 710H629L349 268V0H298V270L19 710H75ZM322 816L287 832L348 917H406L322 816Z" />
<glyph unicode="&#xde;" glyph-name="Thorn" horiz-adv-x="601" d="M366 566Q411 566 449 547T514 497T556 426T572 345Q572 302 558 262T517 192T454 143T372 124H144V0H93V710H144V566H366ZM371 171Q406 171 434 186T481 225T511 281T522 345Q522 379 510 410T476
466T426 504T364 519H144V171H371Z" />
<glyph unicode="&#xdf;" glyph-name="germandbls" horiz-adv-x="549" d="M235 40Q338 42 397 84T457 208Q457 246 444 277T406 330T349 365T275 377H258V424H274Q303 424 327 433T370 458T398 497T408 547Q408 575 398 597T368 636T324 660T271 669Q236 669 210
657T165 623T137 571T127 506V0H78V513Q78 558 92 595T132 658T194 699T272 714Q311 714 345 702T403 669T442 619T456 555Q456 528 448 503T424 458T389 423T345 403Q423 386 465 334T508 205Q508 106 435 52T235 -6V40Z" />
<glyph unicode="&#xe0;" glyph-name="agrave" horiz-adv-x="537" d="M206 -10Q170 -10 139 2T85 36T48 87T35 151Q35 185 51 213T95 261T164 293T252 305Q294 305 336 298T413 277V328Q413 402 371 445T257 489Q219 489 177 473T90 427L71 461Q171 529 261 529Q355
529 409 475T463 324V70Q463 45 485 45V0Q480 -1 475 -1T465 -2Q445 -2 433 11T419 44V87Q383 40 327 15T206 -10ZM216 30Q274 30 322 52T397 110Q413 131 413 150V242Q377 256 338 263T257 270Q218 270 186 262T131 238T96 202T83 154Q83 128 93 105T121 66T163
40T216 30ZM177 730H234L296 645L262 629L177 730Z" />
<glyph unicode="&#xe1;" glyph-name="aacute" horiz-adv-x="537" d="M206 -10Q170 -10 139 2T85 36T48 87T35 151Q35 185 51 213T95 261T164 293T252 305Q294 305 336 298T413 277V328Q413 402 371 445T257 489Q219 489 177 473T90 427L71 461Q171 529 261 529Q355
529 409 475T463 324V70Q463 45 485 45V0Q480 -1 475 -1T465 -2Q445 -2 433 11T419 44V87Q383 40 327 15T206 -10ZM216 30Q274 30 322 52T397 110Q413 131 413 150V242Q377 256 338 263T257 270Q218 270 186 262T131 238T96 202T83 154Q83 128 93 105T121 66T163
40T216 30ZM260 629L225 645L286 730H344L260 629Z" />
<glyph unicode="&#xe2;" glyph-name="acircumflex" horiz-adv-x="537" d="M206 -10Q170 -10 139 2T85 36T48 87T35 151Q35 185 51 213T95 261T164 293T252 305Q294 305 336 298T413 277V328Q413 402 371 445T257 489Q219 489 177 473T90 427L71 461Q171 529 261
529Q355 529 409 475T463 324V70Q463 45 485 45V0Q480 -1 475 -1T465 -2Q445 -2 433 11T419 44V87Q383 40 327 15T206 -10ZM216 30Q274 30 322 52T397 110Q413 131 413 150V242Q377 256 338 263T257 270Q218 270 186 262T131 238T96 202T83 154Q83 128 93 105T121
66T163 40T216 30ZM146 649L242 730H279L376 649L346 632L261 695L176 632L146 649Z" />
<glyph unicode="&#xe3;" glyph-name="atilde" horiz-adv-x="537" d="M206 -10Q170 -10 139 2T85 36T48 87T35 151Q35 185 51 213T95 261T164 293T252 305Q294 305 336 298T413 277V328Q413 402 371 445T257 489Q219 489 177 473T90 427L71 461Q171 529 261 529Q355
529 409 475T463 324V70Q463 45 485 45V0Q480 -1 475 -1T465 -2Q445 -2 433 11T419 44V87Q383 40 327 15T206 -10ZM216 30Q274 30 322 52T397 110Q413 131 413 150V242Q377 256 338 263T257 270Q218 270 186 262T131 238T96 202T83 154Q83 128 93 105T121 66T163
40T216 30ZM322 647Q300 647 283 653T252 666T225 680T196 687Q179 687 169 680T154 665T147 649T145 639H111Q111 643 114 656T126 684T152 710T196 722Q216 722 231 716T261 702T289 688T323 682Q343 682 354 689T371 704T378 720T380 730H414Q414 725 411 712T398
684T370 659T322 647Z" />
<glyph unicode="&#xe4;" glyph-name="adieresis" horiz-adv-x="537" d="M206 -10Q170 -10 139 2T85 36T48 87T35 151Q35 185 51 213T95 261T164 293T252 305Q294 305 336 298T413 277V328Q413 402 371 445T257 489Q219 489 177 473T90 427L71 461Q171 529 261
529Q355 529 409 475T463 324V70Q463 45 485 45V0Q480 -1 475 -1T465 -2Q445 -2 433 11T419 44V87Q383 40 327 15T206 -10ZM216 30Q274 30 322 52T397 110Q413 131 413 150V242Q377 256 338 263T257 270Q218 270 186 262T131 238T96 202T83 154Q83 128 93 105T121
66T163 40T216 30ZM171 640V728H215V640H171ZM307 640V728H351V640H307Z" />
<glyph unicode="&#xe5;" glyph-name="aring" horiz-adv-x="537" d="M206 -10Q170 -10 139 2T85 36T48 87T35 151Q35 185 51 213T95 261T164 293T252 305Q294 305 336 298T413 277V328Q413 402 371 445T257 489Q219 489 177 473T90 427L71 461Q171 529 261 529Q355
529 409 475T463 324V70Q463 45 485 45V0Q480 -1 475 -1T465 -2Q445 -2 433 11T419 44V87Q383 40 327 15T206 -10ZM216 30Q274 30 322 52T397 110Q413 131 413 150V242Q377 256 338 263T257 270Q218 270 186 262T131 238T96 202T83 154Q83 128 93 105T121 66T163
40T216 30ZM192 668Q192 695 211 712T260 730Q289 730 308 713T328 668Q328 640 309 623T260 605Q231 605 212 622T192 668ZM260 707Q243 707 232 697T220 668Q220 651 231 640T260 628Q276 628 288 639T301 668Q301 686 289 696T260 707Z" />
<glyph unicode="&#xe6;" glyph-name="ae" horiz-adv-x="930" d="M206 -10Q170 -10 139 2T85 36T48 87T35 151Q35 185 51 213T95 261T163 293T251 305Q286 305 322 300T389 285Q391 306 395 327T408 369Q397 425 358 457T257 489Q219 489 177 473T90 427L70 461Q171
529 261 529Q327 529 372 500T440 418Q472 468 525 498T642 529Q697 529 744 508T825 450T879 364T899 260Q899 257 899 250T898 240H437Q440 195 458 157T504 90T570 46T648 30Q675 30 701 37T750 58T790 89T818 130L862 118Q850 90 829 67T779 26T716 0T646 -10Q579
-10 524 22T434 107Q418 76 392 54T335 18T271 -3T206 -10ZM216 30Q274 30 323 51T397 110Q412 129 413 145Q402 168 396 196T389 250Q326 270 257 270Q179 270 131 238T83 154Q83 128 93 105T121 66T163 40T216 30ZM850 277Q847 323 830 362T785 429T721 472T642
488Q600 488 564 472T500 428T456 362T437 277H850Z" />
<glyph unicode="&#xe7;" glyph-name="ccedilla" horiz-adv-x="545" d="M222 -125Q236 -132 259 -138T309 -144Q367 -144 367 -107Q367 -87 354 -79T318 -71Q297 -71 274 -76T237 -85L279 -9Q228 -5 185 17T110 77T60 161T42 262Q42 317 61 366T114 451T195 508T298
529Q369 529 423 497T504 408L455 392Q432 435 390 459T296 484Q253 484 216 467T152 420T108 350T92 262Q92 215 108 174T152 102T217 53T297 35Q324 35 350 43T399 64T438 94T461 131L510 117Q500 91 481 69T436 30T378 3T312 -9L286 -53Q295 -49 306 -48T326
-47Q360 -47 379 -62T398 -106Q398 -138 374 -154T305 -171Q276 -171 252 -166T208 -152L222 -125Z" />
<glyph unicode="&#xe8;" glyph-name="egrave" horiz-adv-x="583" d="M299 -10Q244 -10 197 11T116 70T62 157T42 262Q42 317 61 365T115 450T195 508T296 529Q351 529 398 508T479 450T532 365T551 262Q551 257 551 250T550 240H94Q97 195 115 157T160 90T224
46T301 30Q328 30 354 37T402 58T442 89T470 130L514 118Q503 90 482 67T432 26T369 0T299 -10ZM503 280Q500 326 483 364T438 429T374 472T297 488Q256 488 220 473T157 430T113 364T93 280H503ZM211 730H268L330 645L296 629L211 730Z" />
<glyph unicode="&#xe9;" glyph-name="eacute" horiz-adv-x="583" d="M294 629L259 645L320 730H378L294 629ZM299 -10Q244 -10 197 11T116 70T62 157T42 262Q42 317 61 365T115 450T195 508T296 529Q351 529 398 508T479 450T532 365T551 262Q551 257 551 250T550
240H94Q97 195 115 157T160 90T224 46T301 30Q328 30 354 37T402 58T442 89T470 130L514 118Q503 90 482 67T432 26T369 0T299 -10ZM503 280Q500 326 483 364T438 429T374 472T297 488Q256 488 220 473T157 430T113 364T93 280H503Z" />
<glyph unicode="&#xea;" glyph-name="ecircumflex" horiz-adv-x="583" d="M180 649L276 730H313L410 649L380 632L295 695L210 632L180 649ZM299 -10Q244 -10 197 11T116 70T62 157T42 262Q42 317 61 365T115 450T195 508T296 529Q351 529 398 508T479 450T532
365T551 262Q551 257 551 250T550 240H94Q97 195 115 157T160 90T224 46T301 30Q328 30 354 37T402 58T442 89T470 130L514 118Q503 90 482 67T432 26T369 0T299 -10ZM503 280Q500 326 483 364T438 429T374 472T297 488Q256 488 220 473T157 430T113 364T93 280H503Z"
/>
<glyph unicode="&#xeb;" glyph-name="edieresis" horiz-adv-x="583" d="M205 640V728H249V640H205ZM341 640V728H385V640H341ZM299 -10Q244 -10 197 11T116 70T62 157T42 262Q42 317 61 365T115 450T195 508T296 529Q351 529 398 508T479 450T532 365T551 262Q551
257 551 250T550 240H94Q97 195 115 157T160 90T224 46T301 30Q328 30 354 37T402 58T442 89T470 130L514 118Q503 90 482 67T432 26T369 0T299 -10ZM503 280Q500 326 483 364T438 429T374 472T297 488Q256 488 220 473T157 430T113 364T93 280H503Z" />
<glyph unicode="&#xec;" glyph-name="igrave" horiz-adv-x="207" d="M78 0V520H128V0H78ZM19 730H76L138 645L104 629L19 730Z" />
<glyph unicode="&#xed;" glyph-name="iacute" horiz-adv-x="207" d="M102 629L67 645L128 730H186L102 629ZM78 0V520H128V0H78Z" />
<glyph unicode="&#xee;" glyph-name="icircumflex" horiz-adv-x="207" d="M-12 649L84 730H121L218 649L188 632L103 695L18 632L-12 649ZM78 0V520H128V0H78Z" />
<glyph unicode="&#xef;" glyph-name="idieresis" horiz-adv-x="207" d="M13 640V728H57V640H13ZM149 640V728H193V640H149ZM78 0V520H128V0H78Z" />
<glyph unicode="&#xf0;" glyph-name="eth" horiz-adv-x="599" d="M486 689L400 635Q446 591 476 545T523 452T546 358T553 265Q553 205 533 155T477 68T395 11T296 -10Q244 -10 198 9T118 61T64 138T44 232Q44 281 63 325T116 402T194 454T290 474Q361 474 418
439T502 347Q493 413 463 480T362 614L246 540L228 565L340 634Q311 658 277 682T201 730H272Q302 712 328 694T378 655L469 713L486 689ZM95 231Q95 190 111 155T154 93T218 51T297 35Q339 35 376 51T442 96T486 163T502 243Q502 282 486 316T442 375T378 416T299
431Q257 431 220 415T155 372T111 309T95 231Z" />
<glyph unicode="&#xf1;" glyph-name="ntilde" horiz-adv-x="576" d="M503 0H453V290Q453 391 425 437T334 483Q301 483 269 471T208 437T159 386T128 322V0H78V520H125V396Q141 426 164 450T217 492T280 519T348 529Q433 529 468 470T503 299V0ZM351 647Q329 647
312 653T281 666T254 680T225 687Q208 687 198 680T183 665T176 649T174 639H140Q140 643 143 656T155 684T181 710T225 722Q245 722 260 716T290 702T318 688T352 682Q372 682 383 689T400 704T407 720T409 730H443Q443 725 440 712T427 684T399 659T351 647Z"
/>
<glyph unicode="&#xf2;" glyph-name="ograve" horiz-adv-x="592" d="M296 -10Q241 -10 195 11T114 70T61 156T42 259Q42 314 61 363T115 449T195 507T296 529Q350 529 396 508T476 449T530 363T550 259Q550 205 531 156T477 70T397 12T296 -10ZM92 257Q92 211
108 171T151 100T216 53T295 35Q337 35 374 52T439 101T483 172T499 260Q499 306 483 346T439 417T375 466T296 484Q254 484 217 466T153 417T109 345T92 257ZM212 730H269L331 645L297 629L212 730Z" />
<glyph unicode="&#xf3;" glyph-name="oacute" horiz-adv-x="592" d="M295 629L260 645L321 730H379L295 629ZM296 -10Q241 -10 195 11T114 70T61 156T42 259Q42 314 61 363T115 449T195 507T296 529Q350 529 396 508T476 449T530 363T550 259Q550 205 531 156T477
70T397 12T296 -10ZM92 257Q92 211 108 171T151 100T216 53T295 35Q337 35 374 52T439 101T483 172T499 260Q499 306 483 346T439 417T375 466T296 484Q254 484 217 466T153 417T109 345T92 257Z" />
<glyph unicode="&#xf4;" glyph-name="ocircumflex" horiz-adv-x="592" d="M181 649L277 730H314L411 649L381 632L296 695L211 632L181 649ZM296 -10Q241 -10 195 11T114 70T61 156T42 259Q42 314 61 363T115 449T195 507T296 529Q350 529 396 508T476 449T530
363T550 259Q550 205 531 156T477 70T397 12T296 -10ZM92 257Q92 211 108 171T151 100T216 53T295 35Q337 35 374 52T439 101T483 172T499 260Q499 306 483 346T439 417T375 466T296 484Q254 484 217 466T153 417T109 345T92 257Z" />
<glyph unicode="&#xf5;" glyph-name="otilde" horiz-adv-x="592" d="M296 -10Q241 -10 195 11T114 70T61 156T42 259Q42 314 61 363T115 449T195 507T296 529Q350 529 396 508T476 449T530 363T550 259Q550 205 531 156T477 70T397 12T296 -10ZM92 257Q92 211
108 171T151 100T216 53T295 35Q337 35 374 52T439 101T483 172T499 260Q499 306 483 346T439 417T375 466T296 484Q254 484 217 466T153 417T109 345T92 257ZM357 647Q335 647 318 653T287 666T260 680T231 687Q214 687 204 680T189 665T182 649T180 639H146Q146
643 149 656T161 684T187 710T231 722Q251 722 266 716T296 702T324 688T358 682Q378 682 389 689T406 704T413 720T415 730H449Q449 725 446 712T433 684T405 659T357 647Z" />
<glyph unicode="&#xf6;" glyph-name="odieresis" horiz-adv-x="592" d="M206 640V728H250V640H206ZM342 640V728H386V640H342ZM296 -10Q241 -10 195 11T114 70T61 156T42 259Q42 314 61 363T115 449T195 507T296 529Q350 529 396 508T476 449T530 363T550 259Q550
205 531 156T477 70T397 12T296 -10ZM92 257Q92 211 108 171T151 100T216 53T295 35Q337 35 374 52T439 101T483 172T499 260Q499 306 483 346T439 417T375 466T296 484Q254 484 217 466T153 417T109 345T92 257Z" />
<glyph unicode="&#xf7;" glyph-name="divide" horiz-adv-x="540" d="M248 394V475H292V394H248ZM248 81V161H292V81H248ZM69 257V300H472V257H69Z" />
<glyph unicode="&#xf8;" glyph-name="oslash" horiz-adv-x="592" d="M104 -1L138 47Q93 85 68 140T42 259Q42 314 61 363T115 449T195 507T296 529Q332 529 365 519T427 490L449 521H489L453 471Q498 433 524 378T550 259Q550 205 531 156T477 70T397 12T296 -10Q258
-10 226 0T164 28L142 -1H104ZM92 257Q92 204 112 160T166 85L401 451Q378 467 352 475T296 484Q254 484 217 466T153 417T109 345T92 257ZM295 35Q337 35 374 52T439 101T483 172T499 260Q499 311 479 355T425 431L189 67Q236 35 295 35Z" />
<glyph unicode="&#xf9;" glyph-name="ugrave" horiz-adv-x="587" d="M239 -10Q73 -10 73 220V520H123V227Q123 35 254 35Q287 35 318 46T376 78T423 128T456 192V520H506V70Q506 45 527 45V0Q522 -1 518 -1T512 -1Q492 -1 477 11T461 45V123Q427 60 368 25T239
-10ZM204 730H261L323 645L289 629L204 730Z" />
<glyph unicode="&#xfa;" glyph-name="uacute" horiz-adv-x="587" d="M286 629L251 645L312 730H370L286 629ZM239 -10Q73 -10 73 220V520H123V227Q123 35 254 35Q287 35 318 46T376 78T423 128T456 192V520H506V70Q506 45 527 45V0Q522 -1 518 -1T512 -1Q492 -1
477 11T461 45V123Q427 60 368 25T239 -10Z" />
<glyph unicode="&#xfb;" glyph-name="ucircumflex" horiz-adv-x="587" d="M172 649L268 730H305L402 649L372 632L287 695L202 632L172 649ZM239 -10Q73 -10 73 220V520H123V227Q123 35 254 35Q287 35 318 46T376 78T423 128T456 192V520H506V70Q506 45 527 45V0Q522
-1 518 -1T512 -1Q492 -1 477 11T461 45V123Q427 60 368 25T239 -10Z" />
<glyph unicode="&#xfc;" glyph-name="udieresis" horiz-adv-x="587" d="M197 640V728H241V640H197ZM333 640V728H377V640H333ZM239 -10Q73 -10 73 220V520H123V227Q123 35 254 35Q287 35 318 46T376 78T423 128T456 192V520H506V70Q506 45 527 45V0Q522 -1 518
-1T512 -1Q492 -1 477 11T461 45V123Q427 60 368 25T239 -10Z" />
<glyph unicode="&#xfd;" glyph-name="yacute" horiz-adv-x="540" d="M113 -176Q118 -177 128 -177Q138 -177 146 -176T163 -171Q169 -168 174 -163T188 -140T211 -90T249 0L17 520H69L276 49L469 520H518L233 -164Q222 -192 198 -207T131 -223Q127 -223 123 -223T113
-222V-176ZM275 629L240 645L301 730H359L275 629Z" />
<glyph unicode="&#xfe;" glyph-name="thorn" horiz-adv-x="603" d="M562 258Q561 204 541 155T487 69T407 9T308 -14Q279 -14 253 -6T203 16T161 48T129 87V-213H78V710H129V421Q162 467 207 498T317 530Q374 530 419 506T496 442T545 355T562 258ZM511 258Q511
302 497 342T457 414T395 465T315 484Q282 484 254 473T203 444T161 401T129 351V171Q129 144 146 119T190 75T248 45T307 33Q352 33 389 52T454 102T496 174T511 258Z" />
<glyph unicode="&#xff;" glyph-name="ydieresis" horiz-adv-x="540" d="M113 -176Q118 -177 128 -177Q138 -177 146 -176T163 -171Q169 -168 174 -163T188 -140T211 -90T249 0L17 520H69L276 49L469 520H518L233 -164Q222 -192 198 -207T131 -223Q127 -223 123
-223T113 -222V-176ZM186 640V728H230V640H186ZM322 640V728H366V640H322Z" />
<glyph unicode="&#x2013;" glyph-name="endash" horiz-adv-x="559" d="M67 249V295H492V249H67Z" />
<glyph unicode="&#x2014;" glyph-name="emdash" horiz-adv-x="892" d="M67 249V295H825V249H67Z" />
<glyph unicode="&#x2018;" glyph-name="quoteleft" horiz-adv-x="185" d="M114 730L99 631H118V540H66V631L87 730H114Z" />
<glyph unicode="&#x2019;" glyph-name="quoteright" horiz-adv-x="180" d="M71 540L86 639H67V730H119V639L98 540H71Z" />
<glyph unicode="&#x201a;" glyph-name="quotesinglbase" horiz-adv-x="238" d="M97 -93L112 0H94V92H145V0L124 -93H97Z" />
<glyph unicode="&#x201c;" glyph-name="quotedblleft" horiz-adv-x="291" d="M114 730L99 631H118V540H66V631L87 730H114ZM220 730L205 631H224V540H172V631L193 730H220Z" />
<glyph unicode="&#x201d;" glyph-name="quotedblright" horiz-adv-x="286" d="M71 540L86 639H67V730H119V639L98 540H71ZM176 540L191 639H172V730H224V639L203 540H176Z" />
<glyph unicode="&#x201e;" glyph-name="quotedblbase" horiz-adv-x="338" d="M97 -93L112 0H94V92H145V0L124 -93H97ZM197 -93L212 0H194V92H245V0L224 -93H197Z" />
<glyph unicode="&#x2022;" glyph-name="bullet" horiz-adv-x="347" d="M259 345Q259 309 234 284T174 259Q156 259 141 265T114 284T95 311T88 345Q88 362 95 377T113 404T140 423T174 430Q192 430 207 423T234 405T252 378T259 345Z" />
<glyph unicode="&#x2039;" glyph-name="guilsinglleft" horiz-adv-x="351" d="M41 273L285 448V403L83 259L285 116V71L41 243V273Z" />
<glyph unicode="&#x203a;" glyph-name="guilsinglright" horiz-adv-x="351" d="M310 243L65 71V116L268 259L65 403V448L310 273V243Z" />
</font>
</defs>
</svg>
